<?xml version="1.0" standalone="no"?>
<!DOCTYPE svg PUBLIC "-//W3C//DTD SVG 1.1//EN" "http://www.w3.org/Graphics/SVG/1.1/DTD/svg11.dtd" >
<svg xmlns="http://www.w3.org/2000/svg" xmlns:xlink="http://www.w3.org/1999/xlink" version="1.1">
<metadata>
Created by FontForge 20190801 at Thu Jan 19 14:18:21 2017
 By Jimmy Wärting
Copyright 2016 The Nunito Project Authors (contact@sansoxygen.com)
</metadata>
<defs>
<font id="NunitoSans-SemiBold" horiz-adv-x="600" >
  <font-face 
    font-family="Nunito Sans SemiBold"
    font-weight="600"
    font-stretch="normal"
    units-per-em="1000"
    panose-1="0 0 7 0 0 0 0 0 0 0"
    ascent="800"
    descent="-200"
    x-height="487"
    cap-height="705"
    bbox="-337 -264 1290 1078"
    underline-thickness="50"
    underline-position="-100"
    unicode-range="U+000D-FB02"
  />
<missing-glyph horiz-adv-x="443" 
d="M363 705v-885h-281v885h281zM295 646h-146v-29h57v-33h-58v-29h147v29h-59v33h59v29zM236 532h-88v-92h147v30h-59v62zM206 501v-31h-29v31h29zM295 416h-147v-30h58v-32h-58v-30h88v62h59v30zM295 363h-29v-59h-118v-30h147v89zM295 255h-89v-50h30v20h30v-41h-89v71
h-29v-100h147v100zM295 101h-147v-100h147v100zM266 72v-41h-89v41h89zM295 -19h-147v-29h62l-62 -42v-29h147v29h-91l62 42h29v29z" />
    <glyph glyph-name="fi" unicode="fi" horiz-adv-x="583" 
d="M202 488h310v-488h-101v410h-209v-410h-101v410h-95v78h95v9q0 101 52 152.5t158 56.5l40 2l6 -76l-47 -3q-58 -3 -83 -31t-25 -84v-26zM403 707h118v-107h-118v107z" />
    <glyph glyph-name="fl" unicode="fl" horiz-adv-x="584" 
d="M202 488h134v-78h-134v-410h-101v410h-95v78h95v9q0 101 51.5 152t157.5 57l45 2l6 -76l-46 -3q-60 -3 -86.5 -31t-26.5 -85v-25zM412 0v705h101v-705h-101z" />
    <glyph glyph-name=".notdef" horiz-adv-x="443" 
d="M363 705v-885h-281v885h281zM295 646h-146v-29h57v-33h-58v-29h147v29h-59v33h59v29zM236 532h-88v-92h147v30h-59v62zM206 501v-31h-29v31h29zM295 416h-147v-30h58v-32h-58v-30h88v62h59v30zM295 363h-29v-59h-118v-30h147v89zM295 255h-89v-50h30v20h30v-41h-89v71
h-29v-100h147v100zM295 101h-147v-100h147v100zM266 72v-41h-89v41h89zM295 -19h-147v-29h62l-62 -42v-29h147v29h-91l62 42h29v29z" />
    <glyph glyph-name="NULL" horiz-adv-x="0" 
 />
    <glyph glyph-name="NULL" horiz-adv-x="0" 
 />
    <glyph glyph-name="nonmarkingreturn" unicode="&#xd;" horiz-adv-x="264" 
 />
    <glyph glyph-name="space" unicode=" " horiz-adv-x="264" 
 />
    <glyph glyph-name="A" unicode="A" horiz-adv-x="734" 
d="M621 0l-75 174h-357l-75 -174h-104l314 705h86l314 -705h-103zM224 256h287l-143 334z" />
    <glyph glyph-name="Aacute" unicode="&#xc1;" horiz-adv-x="734" 
d="M621 0l-75 174h-357l-75 -174h-104l314 705h86l314 -705h-103zM224 256h287l-143 334zM400 765h-66l101 153h103z" />
    <glyph glyph-name="Abreve" unicode="&#x102;" horiz-adv-x="734" 
d="M621 0l-75 174h-357l-75 -174h-104l314 705h86l314 -705h-103zM224 256h287l-143 334zM264.5 802q-43.5 26 -64.5 81l56 24q21 -36 48 -50t63 -14t63 14t48 50l56 -24q-22 -55 -65.5 -81t-101.5 -26q-59 0 -102.5 26z" />
    <glyph glyph-name="uni1EAE" unicode="&#x1eae;" horiz-adv-x="734" 
d="M621 0l-75 174h-357l-75 -174h-104l314 705h86l314 -705h-103zM224 256h287l-143 334zM399 869h-64l100 141h98zM264.5 786q-43.5 26 -64.5 81l49 21q38 -67 118 -67t118 67l49 -21q-22 -55 -65.5 -81t-101.5 -26q-59 0 -102.5 26z" />
    <glyph glyph-name="uni1EB6" unicode="&#x1eb6;" horiz-adv-x="734" 
d="M621 0l-75 174h-357l-75 -174h-104l314 705h86l314 -705h-103zM224 256h287l-143 334zM314 -86h106v-101h-106v101zM264.5 802q-43.5 26 -64.5 81l56 24q21 -36 48 -50t63 -14t63 14t48 50l56 -24q-22 -55 -65.5 -81t-101.5 -26q-59 0 -102.5 26z" />
    <glyph glyph-name="uni1EB0" unicode="&#x1eb0;" horiz-adv-x="734" 
d="M621 0l-75 174h-357l-75 -174h-104l314 705h86l314 -705h-103zM224 256h287l-143 334zM335 869l-134 141h98l100 -141h-64zM265.5 786q-43.5 26 -65.5 81l49 21q38 -67 118 -67t118 67l49 -21q-21 -55 -64.5 -81t-102.5 -26q-58 0 -101.5 26z" />
    <glyph glyph-name="uni1EB2" unicode="&#x1eb2;" horiz-adv-x="734" 
d="M621 0l-75 174h-357l-75 -174h-104l314 705h86l314 -705h-103zM224 256h287l-143 334zM397 869h-59v18q0 18 11.5 27.5t31.5 16.5q3 1 9.5 4.5t10 6.5t3.5 7q0 7 -10 11.5t-28 4.5q-27 0 -60 -11l-16 44q41 18 85 18q46 0 73.5 -17.5t27.5 -44.5q0 -19 -12 -28.5
t-34 -18.5q-16 -7 -24.5 -13t-8.5 -16v-9zM265.5 786q-43.5 26 -65.5 81l49 21q38 -67 118 -67t118 67l49 -21q-21 -55 -64.5 -81t-102.5 -26q-58 0 -101.5 26z" />
    <glyph glyph-name="uni1EB4" unicode="&#x1eb4;" horiz-adv-x="734" 
d="M621 0l-75 174h-357l-75 -174h-104l314 705h86l314 -705h-103zM224 256h287l-143 334zM229 988.5q27 28.5 68 28.5q20 0 37 -6.5t45 -19.5q38 -20 57 -20q20 0 32 12t13 31h51q0 -46 -27 -74.5t-68 -28.5q-20 0 -38.5 7t-43.5 20q-15 8 -30.5 14t-26.5 6q-20 0 -32 -12.5
t-13 -31.5h-51q0 46 27 74.5zM265.5 786q-43.5 26 -65.5 81l49 21q38 -67 118 -67t118 67l49 -21q-21 -55 -64.5 -81t-102.5 -26q-58 0 -101.5 26z" />
    <glyph glyph-name="Acircumflex" unicode="&#xc2;" horiz-adv-x="734" 
d="M621 0l-75 174h-357l-75 -174h-104l314 705h86l314 -705h-103zM224 256h287l-143 334zM297 765h-84l122 153h64l122 -153h-84l-70 98z" />
    <glyph glyph-name="uni1EA4" unicode="&#x1ea4;" horiz-adv-x="734" 
d="M621 0l-75 174h-357l-75 -174h-104l314 705h86l314 -705h-103zM224 256h287l-143 334zM511 869h-57l86 141h96zM296 765h-83l122 144h64l122 -144h-83l-71 91z" />
    <glyph glyph-name="uni1EAC" unicode="&#x1eac;" horiz-adv-x="734" 
d="M621 0l-75 174h-357l-75 -174h-104l314 705h86l314 -705h-103zM224 256h287l-143 334zM314 -86h106v-101h-106v101zM297 765h-84l122 153h64l122 -153h-84l-70 98z" />
    <glyph glyph-name="uni1EA6" unicode="&#x1ea6;" horiz-adv-x="734" 
d="M621 0l-75 174h-357l-75 -174h-104l314 705h86l314 -705h-103zM224 256h287l-143 334zM497 869l-115 141h96l75 -141h-56zM296 765h-83l122 144h64l122 -144h-83l-71 91z" />
    <glyph glyph-name="uni1EA8" unicode="&#x1ea8;" horiz-adv-x="734" 
d="M621 0l-75 174h-357l-75 -174h-104l314 705h86l314 -705h-103zM224 256h287l-143 334zM513 869h-60v18q0 18 11.5 27.5t31.5 16.5q2 1 9.5 4.5t11 6.5t3.5 7q0 7 -10 11.5t-28 4.5q-28 0 -60 -11l-16 44q41 18 85 18q46 0 73.5 -17.5t27.5 -44.5q0 -19 -12 -28.5
t-34 -18.5q-16 -7 -24.5 -13t-8.5 -16v-9zM296 765h-83l122 144h64l122 -144h-83l-71 91z" />
    <glyph glyph-name="uni1EAA" unicode="&#x1eaa;" horiz-adv-x="734" 
d="M621 0l-75 174h-357l-75 -174h-104l314 705h86l314 -705h-103zM224 256h287l-143 334zM229 996.5q27 28.5 68 28.5q20 0 38 -6t44 -17q15 -7 30.5 -12t26.5 -5q20 0 32 12t13 29h51q0 -43 -27 -71.5t-68 -28.5q-20 0 -38 6t-44 17q-15 7 -30.5 12t-26.5 5q-20 0 -32 -12
t-13 -29h-51q0 43 27 71.5zM296 765h-83l122 144h64l122 -144h-83l-71 91z" />
    <glyph glyph-name="uni0200" unicode="&#x200;" horiz-adv-x="734" 
d="M621 0l-75 174h-357l-75 -174h-104l314 705h86l314 -705h-103zM224 256h287l-143 334zM278 765l-98 153h79l72 -153h-53zM403 765l-98 153h79l72 -153h-53z" />
    <glyph glyph-name="Adieresis" unicode="&#xc4;" horiz-adv-x="734" 
d="M621 0l-75 174h-357l-75 -174h-104l314 705h86l314 -705h-103zM224 256h287l-143 334zM227 892h103v-99h-103v99zM404 892h103v-99h-103v99z" />
    <glyph glyph-name="uni1EA0" unicode="&#x1ea0;" horiz-adv-x="734" 
d="M621 0l-75 174h-357l-75 -174h-104l314 705h86l314 -705h-103zM224 256h287l-143 334zM314 -86h106v-101h-106v101z" />
    <glyph glyph-name="Agrave" unicode="&#xc0;" horiz-adv-x="734" 
d="M621 0l-75 174h-357l-75 -174h-104l314 705h86l314 -705h-103zM224 256h287l-143 334zM334 765l-138 153h103l101 -153h-66z" />
    <glyph glyph-name="uni1EA2" unicode="&#x1ea2;" horiz-adv-x="734" 
d="M621 0l-75 174h-357l-75 -174h-104l314 705h86l314 -705h-103zM224 256h287l-143 334zM397 765h-59v19q0 17 11 27.5t30 19.5q14 7 19.5 11t5.5 11q0 8 -10 13t-28 5q-28 0 -60 -12l-16 46q43 17 85 17q46 0 73.5 -18t27.5 -46q0 -19 -12 -30t-34 -21
q-18 -10 -25.5 -15.5t-7.5 -15.5v-11z" />
    <glyph glyph-name="uni0202" unicode="&#x202;" horiz-adv-x="734" 
d="M621 0l-75 174h-357l-75 -174h-104l314 705h86l314 -705h-103zM224 256h287l-143 334zM469.5 882q43.5 -26 64.5 -81l-56 -24q-21 36 -48 50t-63 14t-63 -14t-48 -50l-56 24q22 55 65.5 81t101.5 26q59 0 102.5 -26z" />
    <glyph glyph-name="Amacron" unicode="&#x100;" horiz-adv-x="734" 
d="M621 0l-75 174h-357l-75 -174h-104l314 705h86l314 -705h-103zM224 256h287l-143 334zM215 807v70h304v-70h-304z" />
    <glyph glyph-name="Aogonek" unicode="&#x104;" horiz-adv-x="734" 
d="M750 -172q-41 -22 -90 -22q-53 0 -86.5 29.5t-33.5 76.5q0 35 18.5 64t52.5 47l-65 151h-357l-75 -174h-104l314 705h86l314 -705h-28q-40 0 -61.5 -21t-21.5 -53q0 -29 16.5 -44.5t46.5 -15.5q28 0 57 16zM224 256h287l-143 334z" />
    <glyph glyph-name="Aring" unicode="&#xc5;" horiz-adv-x="734" 
d="M546 174h-357l-75 -174h-104l306 686q-24 13 -38 36.5t-14 51.5q0 43 30 72.5t73 29.5q44 0 74 -29.5t30 -72.5q0 -28 -14 -51.5t-38 -36.5l305 -686h-103zM334 809q-13 -14 -13 -35t13 -35t33 -14t33.5 14.5t13.5 34.5t-13.5 34.5t-33.5 14.5t-33 -14zM224 256h287
l-143 334z" />
    <glyph glyph-name="Aringacute" unicode="&#x1fa;" horiz-adv-x="734" 
d="M546 174h-357l-75 -174h-104l306 686q-24 13 -38 36.5t-14 51.5q0 43 30 72.5t73 29.5q27 0 51 -13l75 79h105l-140 -118q13 -24 13 -50q0 -28 -14 -51.5t-38 -36.5l305 -686h-103zM334 809q-13 -14 -13 -35t13 -35t33 -14t33.5 14.5t13.5 34.5t-13.5 34.5t-33.5 14.5
t-33 -14zM224 256h287l-143 334z" />
    <glyph glyph-name="Atilde" unicode="&#xc3;" horiz-adv-x="734" 
d="M621 0l-75 174h-357l-75 -174h-104l314 705h86l314 -705h-103zM224 256h287l-143 334zM228 873.5q26 32.5 69 32.5q20 0 37.5 -8t44.5 -24q23 -13 34.5 -18.5t22.5 -5.5q20 0 32 15t13 38h51q0 -59 -26 -91.5t-69 -32.5q-20 0 -37.5 8t-44.5 24q-23 13 -34.5 18.5
t-22.5 5.5q-20 0 -32 -15t-13 -38h-51q0 59 26 91.5z" />
    <glyph glyph-name="AE" unicode="&#xc6;" horiz-adv-x="994" 
d="M948 621h-417l48 -221h349v-84h-331l50 -232h301v-84h-377l-37 174h-329l-103 -174h-112l433 705h525v-84zM253 256h263l-70 325z" />
    <glyph glyph-name="AEacute" unicode="&#x1fc;" horiz-adv-x="994" 
d="M948 621h-417l48 -221h349v-84h-331l50 -232h301v-84h-377l-37 174h-329l-103 -174h-112l433 705h525v-84zM253 256h263l-70 325zM533 765h-66l101 153h103z" />
    <glyph glyph-name="B" unicode="B" horiz-adv-x="678" 
d="M591.5 302q33.5 -44 33.5 -110q0 -91 -62.5 -141.5t-174.5 -50.5h-306v705h295q109 0 170.5 -48.5t61.5 -135.5q0 -56 -29.5 -97t-82.5 -61q61 -17 94.5 -61zM183 400h178q148 0 148 112q0 56 -36.5 83t-111.5 27h-178v-222zM490 111q36 28 36 87q0 60 -36.5 89.5
t-112.5 29.5h-194v-234h194q77 0 113 28z" />
    <glyph glyph-name="C" unicode="C" horiz-adv-x="677" 
d="M214.5 36q-75.5 44 -116 125.5t-40.5 191.5t40.5 191.5t116 125t177.5 43.5q72 0 134 -22.5t105 -64.5l-36 -76q-49 41 -97.5 59t-104.5 18q-110 0 -169.5 -71t-59.5 -203t59.5 -203.5t169.5 -71.5q56 0 104.5 18t97.5 59l36 -76q-43 -42 -105 -64.5t-134 -22.5
q-102 0 -177.5 44z" />
    <glyph glyph-name="Cacute" unicode="&#x106;" horiz-adv-x="677" 
d="M214.5 36q-75.5 44 -116 125.5t-40.5 191.5t40.5 191.5t116 125t177.5 43.5q72 0 134 -22.5t105 -64.5l-36 -76q-49 41 -97.5 59t-104.5 18q-110 0 -169.5 -71t-59.5 -203t59.5 -203.5t169.5 -71.5q56 0 104.5 18t97.5 59l36 -76q-43 -42 -105 -64.5t-134 -22.5
q-102 0 -177.5 44zM422 765h-66l101 153h103z" />
    <glyph glyph-name="Ccaron" unicode="&#x10c;" horiz-adv-x="677" 
d="M214.5 36q-75.5 44 -116 125.5t-40.5 191.5t40.5 191.5t116 125t177.5 43.5q72 0 134 -22.5t105 -64.5l-36 -76q-49 41 -97.5 59t-104.5 18q-110 0 -169.5 -71t-59.5 -203t59.5 -203.5t169.5 -71.5q56 0 104.5 18t97.5 59l36 -76q-43 -42 -105 -64.5t-134 -22.5
q-102 0 -177.5 44zM459 918h84l-122 -153h-64l-122 153h84l70 -98z" />
    <glyph glyph-name="Ccedilla" unicode="&#xc7;" horiz-adv-x="677" 
d="M534 17.5q-57 -22.5 -124 -25.5l-5 -35q14 2 21 2q34 0 56 -17.5t22 -51.5q0 -37 -32 -60.5t-89 -23.5q-21 0 -46 5t-44 14l13 47q37 -14 76 -14q25 0 39 8t14 24q0 25 -35 25q-18 0 -42 -8l-20 17l8 70q-89 10 -154 56t-99.5 123.5t-34.5 179.5q0 110 40.5 191.5
t116 125t177.5 43.5q72 0 134 -22.5t105 -64.5l-36 -76q-49 41 -97.5 59t-104.5 18q-110 0 -169.5 -71t-59.5 -203t59.5 -203.5t169.5 -71.5q56 0 104.5 18t97.5 59l36 -76q-40 -39 -97 -61.5z" />
    <glyph glyph-name="uni1E08" unicode="&#x1e08;" horiz-adv-x="677" 
d="M560 918l-138 -153h-66l101 153h103zM534 17.5q-57 -22.5 -124 -25.5l-5 -35q14 2 21 2q34 0 56 -17.5t22 -51.5q0 -37 -32 -60.5t-89 -23.5q-21 0 -46 5t-44 14l13 47q37 -14 76 -14q25 0 39 8t14 24q0 25 -35 25q-18 0 -42 -8l-20 17l8 70q-89 10 -154 56t-99.5 123.5
t-34.5 179.5q0 110 40.5 191.5t116 125t177.5 43.5q72 0 134 -22.5t105 -64.5l-36 -76q-49 41 -97.5 59t-104.5 18q-110 0 -169.5 -71t-59.5 -203t59.5 -203.5t169.5 -71.5q56 0 104.5 18t97.5 59l36 -76q-40 -39 -97 -61.5z" />
    <glyph glyph-name="Ccircumflex" unicode="&#x108;" horiz-adv-x="677" 
d="M214.5 36q-75.5 44 -116 125.5t-40.5 191.5t40.5 191.5t116 125t177.5 43.5q72 0 134 -22.5t105 -64.5l-36 -76q-49 41 -97.5 59t-104.5 18q-110 0 -169.5 -71t-59.5 -203t59.5 -203.5t169.5 -71.5q56 0 104.5 18t97.5 59l36 -76q-43 -42 -105 -64.5t-134 -22.5
q-102 0 -177.5 44zM319 765h-84l122 153h64l122 -153h-84l-70 98z" />
    <glyph glyph-name="Cdotaccent" unicode="&#x10a;" horiz-adv-x="677" 
d="M214.5 36q-75.5 44 -116 125.5t-40.5 191.5t40.5 191.5t116 125t177.5 43.5q72 0 134 -22.5t105 -64.5l-36 -76q-49 41 -97.5 59t-104.5 18q-110 0 -169.5 -71t-59.5 -203t59.5 -203.5t169.5 -71.5q56 0 104.5 18t97.5 59l36 -76q-43 -42 -105 -64.5t-134 -22.5
q-102 0 -177.5 44zM331 895h116v-106h-116v106z" />
    <glyph glyph-name="D" unicode="D" horiz-adv-x="746" 
d="M82 705h247q171 0 265 -92t94 -260t-94 -260.5t-265 -92.5h-247v705zM323 86q260 0 260 267q0 266 -260 266h-138v-533h138z" />
    <glyph glyph-name="uni01C4" unicode="&#x1c4;" horiz-adv-x="1326" 
d="M82 705h247q171 0 265 -92t94 -260t-94 -260.5t-265 -92.5h-247v705zM323 86q260 0 260 267q0 266 -260 266h-138v-533h138zM894 84h396v-84h-513v76l385 545h-385v84h503v-75zM1099 918h84l-122 -153h-64l-122 153h84l70 -98z" />
    <glyph glyph-name="Eth" unicode="&#xd0;" horiz-adv-x="764" 
d="M612 613q94 -92 94 -260t-94 -260.5t-265 -92.5h-247v317h-90v81h90v307h247q171 0 265 -92zM601 353q0 266 -260 266h-138v-221h191v-81h-191v-231h138q260 0 260 267z" />
    <glyph glyph-name="Dcaron" unicode="&#x10e;" horiz-adv-x="746" 
d="M82 705h247q171 0 265 -92t94 -260t-94 -260.5t-265 -92.5h-247v705zM323 86q260 0 260 267q0 266 -260 266h-138v-533h138zM442 918h84l-122 -153h-64l-122 153h84l70 -98z" />
    <glyph glyph-name="Dcroat" unicode="&#x110;" horiz-adv-x="764" 
d="M612 613q94 -92 94 -260t-94 -260.5t-265 -92.5h-247v317h-90v81h90v307h247q171 0 265 -92zM601 353q0 266 -260 266h-138v-221h191v-81h-191v-231h138q260 0 260 267z" />
    <glyph glyph-name="uni1E0C" unicode="&#x1e0c;" horiz-adv-x="746" 
d="M82 705h247q171 0 265 -92t94 -260t-94 -260.5t-265 -92.5h-247v705zM323 86q260 0 260 267q0 266 -260 266h-138v-533h138zM320 -86h106v-101h-106v101z" />
    <glyph glyph-name="uni1E0E" unicode="&#x1e0e;" horiz-adv-x="746" 
d="M82 705h247q171 0 265 -92t94 -260t-94 -260.5t-265 -92.5h-247v705zM323 86q260 0 260 267q0 266 -260 266h-138v-533h138zM221 -170v67h304v-67h-304z" />
    <glyph glyph-name="uni01C5" unicode="&#x1c5;" horiz-adv-x="1252" 
d="M82 705h247q171 0 265 -92t94 -260t-94 -260.5t-265 -92.5h-247v705zM323 86q260 0 260 267q0 266 -260 266h-138v-533h138zM916 78h296v-78h-418v70l286 340h-278v78h400v-71zM1072 755h86l-121 -203h-66l-121 203h86l68 -135z" />
    <glyph glyph-name="E" unicode="E" horiz-adv-x="585" 
d="M82 0v705h458v-83h-357v-222h337v-84h-337v-233h357v-83h-458z" />
    <glyph glyph-name="Eacute" unicode="&#xc9;" horiz-adv-x="585" 
d="M82 0v705h458v-83h-357v-222h337v-84h-337v-233h357v-83h-458zM359 765h-66l101 153h103z" />
    <glyph glyph-name="Ebreve" unicode="&#x114;" horiz-adv-x="585" 
d="M82 0v705h458v-83h-357v-222h337v-84h-337v-233h357v-83h-458zM223.5 802q-43.5 26 -64.5 81l56 24q21 -36 48 -50t63 -14t63 14t48 50l56 -24q-22 -55 -65.5 -81t-101.5 -26q-59 0 -102.5 26z" />
    <glyph glyph-name="Ecaron" unicode="&#x11a;" horiz-adv-x="585" 
d="M82 0v705h458v-83h-357v-222h337v-84h-337v-233h357v-83h-458zM396 918h84l-122 -153h-64l-122 153h84l70 -98z" />
    <glyph glyph-name="uni0228" unicode="&#x228;" horiz-adv-x="585" 
d="M183 622v-222h337v-84h-337v-233h357v-83h-191l-6 -43q14 2 21 2q34 0 56 -17.5t22 -51.5q0 -37 -32 -60.5t-89 -23.5q-21 0 -46 5t-44 14l13 47q37 -14 76 -14q25 0 39 8t14 24q0 25 -35 25q-18 0 -42 -8l-20 17l9 76h-203v705h458v-83h-357z" />
    <glyph glyph-name="uni1E1C" unicode="&#x1e1c;" horiz-adv-x="585" 
d="M223.5 802q-43.5 26 -64.5 81l56 24q21 -36 48 -50t63 -14t63 14t48 50l56 -24q-22 -55 -65.5 -81t-101.5 -26q-59 0 -102.5 26zM183 622v-222h337v-84h-337v-233h357v-83h-191l-6 -43q14 2 21 2q34 0 56 -17.5t22 -51.5q0 -37 -32 -60.5t-89 -23.5q-21 0 -46 5t-44 14
l13 47q37 -14 76 -14q25 0 39 8t14 24q0 25 -35 25q-18 0 -42 -8l-20 17l9 76h-203v705h458v-83h-357z" />
    <glyph glyph-name="Ecircumflex" unicode="&#xca;" horiz-adv-x="585" 
d="M82 0v705h458v-83h-357v-222h337v-84h-337v-233h357v-83h-458zM256 765h-84l122 153h64l122 -153h-84l-70 98z" />
    <glyph glyph-name="uni1EBE" unicode="&#x1ebe;" horiz-adv-x="585" 
d="M82 0v705h458v-83h-357v-222h337v-84h-337v-233h357v-83h-458zM470 869h-57l86 141h96zM255 765h-83l122 144h64l122 -144h-83l-71 91z" />
    <glyph glyph-name="uni1EC6" unicode="&#x1ec6;" horiz-adv-x="585" 
d="M82 0v705h458v-83h-357v-222h337v-84h-337v-233h357v-83h-458zM273 -86h106v-101h-106v101zM256 765h-84l122 153h64l122 -153h-84l-70 98z" />
    <glyph glyph-name="uni1EC0" unicode="&#x1ec0;" horiz-adv-x="585" 
d="M82 0v705h458v-83h-357v-222h337v-84h-337v-233h357v-83h-458zM456 869l-115 141h96l75 -141h-56zM255 765h-83l122 144h64l122 -144h-83l-71 91z" />
    <glyph glyph-name="uni1EC2" unicode="&#x1ec2;" horiz-adv-x="585" 
d="M82 0v705h458v-83h-357v-222h337v-84h-337v-233h357v-83h-458zM472 869h-60v18q0 18 11.5 27.5t31.5 16.5q2 1 9.5 4.5t11 6.5t3.5 7q0 7 -10 11.5t-28 4.5q-28 0 -60 -11l-16 44q41 18 85 18q46 0 73.5 -17.5t27.5 -44.5q0 -19 -12 -28.5t-34 -18.5q-16 -7 -24.5 -13
t-8.5 -16v-9zM255 765h-83l122 144h64l122 -144h-83l-71 91z" />
    <glyph glyph-name="uni1EC4" unicode="&#x1ec4;" horiz-adv-x="585" 
d="M82 0v705h458v-83h-357v-222h337v-84h-337v-233h357v-83h-458zM188 996.5q27 28.5 68 28.5q20 0 38 -6t44 -17q15 -7 30.5 -12t26.5 -5q20 0 32 12t13 29h51q0 -43 -27 -71.5t-68 -28.5q-20 0 -38 6t-44 17q-15 7 -30.5 12t-26.5 5q-20 0 -32 -12t-13 -29h-51
q0 43 27 71.5zM255 765h-83l122 144h64l122 -144h-83l-71 91z" />
    <glyph glyph-name="uni0204" unicode="&#x204;" horiz-adv-x="585" 
d="M82 0v705h458v-83h-357v-222h337v-84h-337v-233h357v-83h-458zM237 765l-98 153h79l72 -153h-53zM362 765l-98 153h79l72 -153h-53z" />
    <glyph glyph-name="Edieresis" unicode="&#xcb;" horiz-adv-x="585" 
d="M82 0v705h458v-83h-357v-222h337v-84h-337v-233h357v-83h-458zM186 892h103v-99h-103v99zM363 892h103v-99h-103v99z" />
    <glyph glyph-name="Edotaccent" unicode="&#x116;" horiz-adv-x="585" 
d="M82 0v705h458v-83h-357v-222h337v-84h-337v-233h357v-83h-458zM268 895h116v-106h-116v106z" />
    <glyph glyph-name="uni1EB8" unicode="&#x1eb8;" horiz-adv-x="585" 
d="M82 0v705h458v-83h-357v-222h337v-84h-337v-233h357v-83h-458zM273 -86h106v-101h-106v101z" />
    <glyph glyph-name="Egrave" unicode="&#xc8;" horiz-adv-x="585" 
d="M82 0v705h458v-83h-357v-222h337v-84h-337v-233h357v-83h-458zM293 765l-138 153h103l101 -153h-66z" />
    <glyph glyph-name="uni1EBA" unicode="&#x1eba;" horiz-adv-x="585" 
d="M82 0v705h458v-83h-357v-222h337v-84h-337v-233h357v-83h-458zM356 765h-59v19q0 17 11 27.5t30 19.5q14 7 19.5 11t5.5 11q0 8 -10 13t-28 5q-28 0 -60 -12l-16 46q43 17 85 17q46 0 73.5 -18t27.5 -46q0 -19 -12 -30t-34 -21q-18 -10 -25.5 -15.5t-7.5 -15.5v-11z" />
    <glyph glyph-name="uni0206" unicode="&#x206;" horiz-adv-x="585" 
d="M82 0v705h458v-83h-357v-222h337v-84h-337v-233h357v-83h-458zM428.5 882q43.5 -26 64.5 -81l-56 -24q-21 36 -48 50t-63 14t-63 -14t-48 -50l-56 24q22 55 65.5 81t101.5 26q59 0 102.5 -26z" />
    <glyph glyph-name="Emacron" unicode="&#x112;" horiz-adv-x="585" 
d="M82 0v705h458v-83h-357v-222h337v-84h-337v-233h357v-83h-458zM174 807v70h304v-70h-304z" />
    <glyph glyph-name="uni1E16" unicode="&#x1e16;" horiz-adv-x="585" 
d="M82 0v705h458v-83h-357v-222h337v-84h-337v-233h357v-83h-458zM174 807v70h304v-70h-304zM359 925h-66l101 153h103z" />
    <glyph glyph-name="uni1E14" unicode="&#x1e14;" horiz-adv-x="585" 
d="M82 0v705h458v-83h-357v-222h337v-84h-337v-233h357v-83h-458zM174 807v70h304v-70h-304zM293 925l-138 153h103l101 -153h-66z" />
    <glyph glyph-name="Eogonek" unicode="&#x118;" horiz-adv-x="585" 
d="M575 -172q-41 -22 -90 -22q-53 0 -86.5 30t-33.5 76q0 54 40 88h-323v705h458v-83h-357v-222h337v-84h-337v-233h357v-83h-17q-40 0 -62.5 -20.5t-22.5 -53.5q0 -29 17 -44.5t47 -15.5q27 0 56 16z" />
    <glyph glyph-name="uni1EBC" unicode="&#x1ebc;" horiz-adv-x="585" 
d="M82 0v705h458v-83h-357v-222h337v-84h-337v-233h357v-83h-458zM187 873.5q26 32.5 69 32.5q20 0 37.5 -8t44.5 -24q23 -13 34.5 -18.5t22.5 -5.5q20 0 32 15t13 38h51q0 -59 -26 -91.5t-69 -32.5q-20 0 -37.5 8t-44.5 24q-23 13 -34.5 18.5t-22.5 5.5q-20 0 -32 -15
t-13 -38h-51q0 59 26 91.5z" />
    <glyph glyph-name="F" unicode="F" horiz-adv-x="561" 
d="M82 0v705h448v-84h-346v-221h326v-84h-326v-316h-102z" />
    <glyph glyph-name="G" unicode="G" horiz-adv-x="728" 
d="M654 374v-332q-45 -23 -113 -36.5t-138 -13.5q-107 0 -185 43t-119 124t-41 194q0 111 41 192.5t117.5 124.5t180.5 43q75 0 138 -22t107 -64l-37 -76q-50 41 -99 59t-108 18q-114 0 -174.5 -70.5t-60.5 -204.5q0 -137 62 -207.5t181 -70.5q78 0 154 23v198h-164v78h258z
" />
    <glyph glyph-name="Gbreve" unicode="&#x11e;" horiz-adv-x="728" 
d="M654 374v-332q-45 -23 -113 -36.5t-138 -13.5q-107 0 -185 43t-119 124t-41 194q0 111 41 192.5t117.5 124.5t180.5 43q75 0 138 -22t107 -64l-37 -76q-50 41 -99 59t-108 18q-114 0 -174.5 -70.5t-60.5 -204.5q0 -137 62 -207.5t181 -70.5q78 0 154 23v198h-164v78h258z
M293.5 802q-43.5 26 -64.5 81l56 24q21 -36 48 -50t63 -14t63 14t48 50l56 -24q-22 -55 -65.5 -81t-101.5 -26q-59 0 -102.5 26z" />
    <glyph glyph-name="Gcaron" unicode="&#x1e6;" horiz-adv-x="728" 
d="M654 374v-332q-45 -23 -113 -36.5t-138 -13.5q-107 0 -185 43t-119 124t-41 194q0 111 41 192.5t117.5 124.5t180.5 43q75 0 138 -22t107 -64l-37 -76q-50 41 -99 59t-108 18q-114 0 -174.5 -70.5t-60.5 -204.5q0 -137 62 -207.5t181 -70.5q78 0 154 23v198h-164v78h258z
M466 918h84l-122 -153h-64l-122 153h84l70 -98z" />
    <glyph glyph-name="Gcircumflex" unicode="&#x11c;" horiz-adv-x="728" 
d="M654 374v-332q-45 -23 -113 -36.5t-138 -13.5q-107 0 -185 43t-119 124t-41 194q0 111 41 192.5t117.5 124.5t180.5 43q75 0 138 -22t107 -64l-37 -76q-50 41 -99 59t-108 18q-114 0 -174.5 -70.5t-60.5 -204.5q0 -137 62 -207.5t181 -70.5q78 0 154 23v198h-164v78h258z
M326 765h-84l122 153h64l122 -153h-84l-70 98z" />
    <glyph glyph-name="Gcommaaccent" unicode="&#x122;" horiz-adv-x="728" 
d="M654 374v-332q-45 -23 -113 -36.5t-138 -13.5q-107 0 -185 43t-119 124t-41 194q0 111 41 192.5t117.5 124.5t180.5 43q75 0 138 -22t107 -64l-37 -76q-50 41 -99 59t-108 18q-114 0 -174.5 -70.5t-60.5 -204.5q0 -137 62 -207.5t181 -70.5q78 0 154 23v198h-164v78h258z
M459 -70v-60q0 -42 -12 -74t-41 -60l-42 30q18 18 26 35t10 37h-54v92h113z" />
    <glyph glyph-name="Gdotaccent" unicode="&#x120;" horiz-adv-x="728" 
d="M654 374v-332q-45 -23 -113 -36.5t-138 -13.5q-107 0 -185 43t-119 124t-41 194q0 111 41 192.5t117.5 124.5t180.5 43q75 0 138 -22t107 -64l-37 -76q-50 41 -99 59t-108 18q-114 0 -174.5 -70.5t-60.5 -204.5q0 -137 62 -207.5t181 -70.5q78 0 154 23v198h-164v78h258z
M338 895h116v-106h-116v106z" />
    <glyph glyph-name="uni1E20" unicode="&#x1e20;" horiz-adv-x="728" 
d="M654 374v-332q-45 -23 -113 -36.5t-138 -13.5q-107 0 -185 43t-119 124t-41 194q0 111 41 192.5t117.5 124.5t180.5 43q75 0 138 -22t107 -64l-37 -76q-50 41 -99 59t-108 18q-114 0 -174.5 -70.5t-60.5 -204.5q0 -137 62 -207.5t181 -70.5q78 0 154 23v198h-164v78h258z
M244 807v70h304v-70h-304z" />
    <glyph glyph-name="H" unicode="H" horiz-adv-x="762" 
d="M578 705h102v-705h-102v316h-394v-316h-102v705h102v-305h394v305z" />
    <glyph glyph-name="Hbar" unicode="&#x126;" horiz-adv-x="798" 
d="M788 596v-79h-90v-517h-102v316h-394v-316h-102v517h-90v79h90v109h102v-109h394v109h102v-109h90zM596 400v117h-394v-117h394z" />
    <glyph glyph-name="uni1E2A" unicode="&#x1e2a;" horiz-adv-x="762" 
d="M578 705h102v-705h-102v316h-394v-316h-102v705h102v-305h394v305zM276 -183q-46 33 -66 99l57 24q22 -46 50 -66t64 -20t64 20t50 66l57 -24q-19 -66 -65.5 -99t-105.5 -33t-105 33z" />
    <glyph glyph-name="Hcircumflex" unicode="&#x124;" horiz-adv-x="762" 
d="M578 705h102v-705h-102v316h-394v-316h-102v705h102v-305h394v305zM311 765h-84l122 153h64l122 -153h-84l-70 98z" />
    <glyph glyph-name="uni1E24" unicode="&#x1e24;" horiz-adv-x="762" 
d="M578 705h102v-705h-102v316h-394v-316h-102v705h102v-305h394v305zM328 -86h106v-101h-106v101z" />
    <glyph glyph-name="I" unicode="I" horiz-adv-x="267" 
d="M82 0v705h103v-705h-103z" />
    <glyph glyph-name="Iacute" unicode="&#xcd;" horiz-adv-x="267" 
d="M82 0v705h103v-705h-103zM166 765h-66l101 153h103z" />
    <glyph glyph-name="Ibreve" unicode="&#x12c;" horiz-adv-x="267" 
d="M82 0v705h103v-705h-103zM30.5 802q-43.5 26 -64.5 81l56 24q21 -36 48 -50t63 -14t63 14t48 50l56 -24q-22 -55 -65.5 -81t-101.5 -26q-59 0 -102.5 26z" />
    <glyph glyph-name="Icircumflex" unicode="&#xce;" horiz-adv-x="267" 
d="M82 0v705h103v-705h-103zM63 765h-84l122 153h64l122 -153h-84l-70 98z" />
    <glyph glyph-name="uni0208" unicode="&#x208;" horiz-adv-x="267" 
d="M82 0v705h103v-705h-103zM44 765l-98 153h79l72 -153h-53zM169 765l-98 153h79l72 -153h-53z" />
    <glyph glyph-name="Idieresis" unicode="&#xcf;" horiz-adv-x="267" 
d="M82 0v705h103v-705h-103zM-7 892h103v-99h-103v99zM170 892h103v-99h-103v99z" />
    <glyph glyph-name="uni1E2E" unicode="&#x1e2e;" horiz-adv-x="267" 
d="M82 0v705h103v-705h-103zM-7 892h103v-99h-103v99zM170 892h103v-99h-103v99zM166 925h-66l101 153h103z" />
    <glyph glyph-name="Idotaccent" unicode="&#x130;" horiz-adv-x="267" 
d="M82 0v705h103v-705h-103zM75 895h116v-106h-116v106z" />
    <glyph glyph-name="uni1ECA" unicode="&#x1eca;" horiz-adv-x="267" 
d="M82 0v705h103v-705h-103zM80 -86h106v-101h-106v101z" />
    <glyph glyph-name="Igrave" unicode="&#xcc;" horiz-adv-x="267" 
d="M82 0v705h103v-705h-103zM100 765l-138 153h103l101 -153h-66z" />
    <glyph glyph-name="uni1EC8" unicode="&#x1ec8;" horiz-adv-x="267" 
d="M82 0v705h103v-705h-103zM163 765h-59v19q0 17 11 27.5t30 19.5q14 7 19.5 11t5.5 11q0 8 -10 13t-28 5q-28 0 -60 -12l-16 46q43 17 85 17q46 0 73.5 -18t27.5 -46q0 -19 -12 -30t-34 -21q-18 -10 -25.5 -15.5t-7.5 -15.5v-11z" />
    <glyph glyph-name="uni020A" unicode="&#x20a;" horiz-adv-x="267" 
d="M82 0v705h103v-705h-103zM235.5 882q43.5 -26 64.5 -81l-56 -24q-21 36 -48 50t-63 14t-63 -14t-48 -50l-56 24q22 55 65.5 81t101.5 26q59 0 102.5 -26z" />
    <glyph glyph-name="Imacron" unicode="&#x12a;" horiz-adv-x="267" 
d="M82 0v705h103v-705h-103zM-19 807v70h304v-70h-304z" />
    <glyph glyph-name="Iogonek" unicode="&#x12e;" horiz-adv-x="267" 
d="M225 -172q-41 -22 -89 -22q-53 0 -86.5 29.5t-33.5 77.5q0 33 16.5 60.5t49.5 45.5v686h103v-705h-9q-40 0 -64 -21t-24 -53q0 -29 17 -44.5t47 -15.5q28 0 57 16z" />
    <glyph glyph-name="Itilde" unicode="&#x128;" horiz-adv-x="267" 
d="M82 0v705h103v-705h-103zM-6 873.5q26 32.5 69 32.5q20 0 37.5 -8t44.5 -24q23 -13 34.5 -18.5t22.5 -5.5q20 0 32 15t13 38h51q0 -59 -26 -91.5t-69 -32.5q-20 0 -37.5 8t-44.5 24q-23 13 -34.5 18.5t-22.5 5.5q-20 0 -32 -15t-13 -38h-51q0 59 26 91.5z" />
    <glyph glyph-name="J" unicode="J" horiz-adv-x="341" 
d="M-7 77l64 4q48 4 73 32.5t25 79.5v512h104v-513q0 -90 -47.5 -140t-138.5 -55l-73 -5z" />
    <glyph glyph-name="Jcircumflex" unicode="&#x134;" horiz-adv-x="341" 
d="M-7 77l64 4q48 4 73 32.5t25 79.5v512h104v-513q0 -90 -47.5 -140t-138.5 -55l-73 -5zM137 765h-84l122 153h64l122 -153h-84l-70 98z" />
    <glyph glyph-name="K" unicode="K" horiz-adv-x="642" 
d="M661 0h-129l-347 332v-332h-103v705h103v-321l332 321h127l-356 -341z" />
    <glyph glyph-name="Kcommaaccent" unicode="&#x136;" horiz-adv-x="642" 
d="M661 0h-129l-347 332v-332h-103v705h103v-321l332 321h127l-356 -341zM379 -70v-60q0 -42 -12 -74t-41 -60l-42 30q18 18 26 35t10 37h-54v92h113z" />
    <glyph glyph-name="L" unicode="L" horiz-adv-x="547" 
d="M82 0v705h103v-619h342v-86h-445z" />
    <glyph glyph-name="uni01C7" unicode="&#x1c7;" horiz-adv-x="888" 
d="M82 0v705h103v-619h312v-86h-415zM540 77l64 4q50 4 74 29.5t24 74.5v520h104v-517q0 -89 -47 -137.5t-139 -53.5l-73 -5z" />
    <glyph glyph-name="Lacute" unicode="&#x139;" horiz-adv-x="547" 
d="M82 0v705h103v-619h342v-86h-445zM166 765h-66l101 153h103z" />
    <glyph glyph-name="Lcaron" unicode="&#x13d;" horiz-adv-x="547" 
d="M82 0v705h103v-619h342v-86h-445zM321 514h-51v191h77z" />
    <glyph glyph-name="Lcommaaccent" unicode="&#x13b;" horiz-adv-x="547" 
d="M82 0v705h103v-619h342v-86h-445zM366 -70v-60q0 -42 -12 -74t-41 -60l-42 30q18 18 26 35t10 37h-54v92h113z" />
    <glyph glyph-name="Ldot" unicode="&#x13f;" horiz-adv-x="547" 
d="M82 0v705h103v-619h342v-86h-445zM303 407h119v-108h-119v108z" />
    <glyph glyph-name="uni1E36" unicode="&#x1e36;" horiz-adv-x="547" 
d="M82 0v705h103v-619h342v-86h-445zM257 -86h106v-101h-106v101z" />
    <glyph glyph-name="uni01C8" unicode="&#x1c8;" horiz-adv-x="789" 
d="M82 0v705h103v-619h342v-86h-445zM718 12q0 -95 -45.5 -141t-146.5 -52l-46 -3l-8 75l48 3q49 4 73 29t24 74v491h101v-476zM610 706h116v-105h-116v105z" />
    <glyph glyph-name="uni1E3A" unicode="&#x1e3a;" horiz-adv-x="547" 
d="M82 0v705h103v-619h342v-86h-445zM158 -170v67h304v-67h-304z" />
    <glyph glyph-name="Lslash" unicode="&#x141;" horiz-adv-x="565" 
d="M203 86h343v-86h-446v280l-70 -40l-40 70l110 63v332h103v-272l165 95l40 -70l-205 -118v-254z" />
    <glyph glyph-name="M" unicode="M" horiz-adv-x="841" 
d="M676 705h82v-705h-93l1 510l-210 -397h-70l-211 392l1 -505h-93v705h83l256 -488z" />
    <glyph glyph-name="uni1E42" unicode="&#x1e42;" horiz-adv-x="841" 
d="M676 705h82v-705h-93l1 510l-210 -397h-70l-211 392l1 -505h-93v705h83l256 -488zM367 -86h106v-101h-106v101z" />
    <glyph glyph-name="N" unicode="N" horiz-adv-x="743" 
d="M564 705h97v-705h-79l-403 532v-532h-97v705h78l404 -533v533z" />
    <glyph glyph-name="uni01CA" unicode="&#x1ca;" horiz-adv-x="1084" 
d="M564 705h97v-705h-79l-403 532v-532h-97v705h78l404 -533v533zM736 77l64 4q48 4 73 32.5t25 79.5v512h104v-513q0 -90 -47.5 -140t-138.5 -55l-73 -5z" />
    <glyph glyph-name="Nacute" unicode="&#x143;" horiz-adv-x="743" 
d="M564 705h97v-705h-79l-403 532v-532h-97v705h78l404 -533v533zM404 765h-66l101 153h103z" />
    <glyph glyph-name="Ncaron" unicode="&#x147;" horiz-adv-x="743" 
d="M564 705h97v-705h-79l-403 532v-532h-97v705h78l404 -533v533zM441 918h84l-122 -153h-64l-122 153h84l70 -98z" />
    <glyph glyph-name="Ncommaaccent" unicode="&#x145;" horiz-adv-x="743" 
d="M564 705h97v-705h-79l-403 532v-532h-97v705h78l404 -533v533zM428 -70v-60q0 -42 -12 -74t-41 -60l-42 30q18 18 26 35t10 37h-54v92h113z" />
    <glyph glyph-name="uni1E44" unicode="&#x1e44;" horiz-adv-x="743" 
d="M564 705h97v-705h-79l-403 532v-532h-97v705h78l404 -533v533zM313 895h116v-106h-116v106z" />
    <glyph glyph-name="uni1E46" unicode="&#x1e46;" horiz-adv-x="743" 
d="M564 705h97v-705h-79l-403 532v-532h-97v705h78l404 -533v533zM319 -86h106v-101h-106v101z" />
    <glyph glyph-name="Eng" unicode="&#x14a;" horiz-adv-x="743" 
d="M661 705v-696q0 -179 -186 -191l-73 -5l-6 81l64 5q50 3 76.5 30t26.5 75v21l-384 507v-532h-97v705h78l404 -533v533h97z" />
    <glyph glyph-name="uni01CB" unicode="&#x1cb;" horiz-adv-x="985" 
d="M564 705h97v-705h-79l-403 532v-532h-97v705h78l404 -533v533zM914 12q0 -95 -45.5 -141t-146.5 -52l-46 -3l-8 75l48 3q49 4 73 29t24 74v491h101v-476zM806 706h116v-105h-116v105z" />
    <glyph glyph-name="uni1E48" unicode="&#x1e48;" horiz-adv-x="743" 
d="M564 705h97v-705h-79l-403 532v-532h-97v705h78l404 -533v533zM220 -170v67h304v-67h-304z" />
    <glyph glyph-name="Ntilde" unicode="&#xd1;" horiz-adv-x="743" 
d="M564 705h97v-705h-79l-403 532v-532h-97v705h78l404 -533v533zM232 873.5q26 32.5 69 32.5q20 0 37.5 -8t44.5 -24q23 -13 34.5 -18.5t22.5 -5.5q20 0 32 15t13 38h51q0 -59 -26 -91.5t-69 -32.5q-20 0 -37.5 8t-44.5 24q-23 13 -34.5 18.5t-22.5 5.5q-20 0 -32 -15
t-13 -38h-51q0 59 26 91.5z" />
    <glyph glyph-name="O" unicode="O" horiz-adv-x="771" 
d="M211.5 36q-73.5 44 -113.5 125t-40 191q0 111 39.5 192.5t113.5 125t174 43.5q101 0 175 -43.5t113.5 -125t39.5 -191.5t-39.5 -191.5t-113.5 -125.5t-175 -44q-100 0 -173.5 44zM550 148q59 72 59 205t-58.5 204.5t-165.5 71.5q-105 0 -163.5 -71.5t-58.5 -204.5
t58.5 -205t163.5 -72q106 0 165 72z" />
    <glyph glyph-name="Oacute" unicode="&#xd3;" horiz-adv-x="771" 
d="M211.5 36q-73.5 44 -113.5 125t-40 191q0 111 39.5 192.5t113.5 125t174 43.5q101 0 175 -43.5t113.5 -125t39.5 -191.5t-39.5 -191.5t-113.5 -125.5t-175 -44q-100 0 -173.5 44zM550 148q59 72 59 205t-58.5 204.5t-165.5 71.5q-105 0 -163.5 -71.5t-58.5 -204.5
t58.5 -205t163.5 -72q106 0 165 72zM418 765h-66l101 153h103z" />
    <glyph glyph-name="Obreve" unicode="&#x14e;" horiz-adv-x="771" 
d="M211.5 36q-73.5 44 -113.5 125t-40 191q0 111 39.5 192.5t113.5 125t174 43.5q101 0 175 -43.5t113.5 -125t39.5 -191.5t-39.5 -191.5t-113.5 -125.5t-175 -44q-100 0 -173.5 44zM550 148q59 72 59 205t-58.5 204.5t-165.5 71.5q-105 0 -163.5 -71.5t-58.5 -204.5
t58.5 -205t163.5 -72q106 0 165 72zM282.5 802q-43.5 26 -64.5 81l56 24q21 -36 48 -50t63 -14t63 14t48 50l56 -24q-22 -55 -65.5 -81t-101.5 -26q-59 0 -102.5 26z" />
    <glyph glyph-name="Ocircumflex" unicode="&#xd4;" horiz-adv-x="771" 
d="M211.5 36q-73.5 44 -113.5 125t-40 191q0 111 39.5 192.5t113.5 125t174 43.5q101 0 175 -43.5t113.5 -125t39.5 -191.5t-39.5 -191.5t-113.5 -125.5t-175 -44q-100 0 -173.5 44zM550 148q59 72 59 205t-58.5 204.5t-165.5 71.5q-105 0 -163.5 -71.5t-58.5 -204.5
t58.5 -205t163.5 -72q106 0 165 72zM315 765h-84l122 153h64l122 -153h-84l-70 98z" />
    <glyph glyph-name="uni1ED0" unicode="&#x1ed0;" horiz-adv-x="771" 
d="M211.5 36q-73.5 44 -113.5 125t-40 191q0 111 39.5 192.5t113.5 125t174 43.5q101 0 175 -43.5t113.5 -125t39.5 -191.5t-39.5 -191.5t-113.5 -125.5t-175 -44q-100 0 -173.5 44zM550 148q59 72 59 205t-58.5 204.5t-165.5 71.5q-105 0 -163.5 -71.5t-58.5 -204.5
t58.5 -205t163.5 -72q106 0 165 72zM529 869h-57l86 141h96zM314 765h-83l122 144h64l122 -144h-83l-71 91z" />
    <glyph glyph-name="uni1ED8" unicode="&#x1ed8;" horiz-adv-x="771" 
d="M211.5 36q-73.5 44 -113.5 125t-40 191q0 111 39.5 192.5t113.5 125t174 43.5q101 0 175 -43.5t113.5 -125t39.5 -191.5t-39.5 -191.5t-113.5 -125.5t-175 -44q-100 0 -173.5 44zM550 148q59 72 59 205t-58.5 204.5t-165.5 71.5q-105 0 -163.5 -71.5t-58.5 -204.5
t58.5 -205t163.5 -72q106 0 165 72zM332 -86h106v-101h-106v101zM315 765h-84l122 153h64l122 -153h-84l-70 98z" />
    <glyph glyph-name="uni1ED2" unicode="&#x1ed2;" horiz-adv-x="771" 
d="M211.5 36q-73.5 44 -113.5 125t-40 191q0 111 39.5 192.5t113.5 125t174 43.5q101 0 175 -43.5t113.5 -125t39.5 -191.5t-39.5 -191.5t-113.5 -125.5t-175 -44q-100 0 -173.5 44zM550 148q59 72 59 205t-58.5 204.5t-165.5 71.5q-105 0 -163.5 -71.5t-58.5 -204.5
t58.5 -205t163.5 -72q106 0 165 72zM515 869l-115 141h96l75 -141h-56zM314 765h-83l122 144h64l122 -144h-83l-71 91z" />
    <glyph glyph-name="uni1ED4" unicode="&#x1ed4;" horiz-adv-x="771" 
d="M211.5 36q-73.5 44 -113.5 125t-40 191q0 111 39.5 192.5t113.5 125t174 43.5q101 0 175 -43.5t113.5 -125t39.5 -191.5t-39.5 -191.5t-113.5 -125.5t-175 -44q-100 0 -173.5 44zM550 148q59 72 59 205t-58.5 204.5t-165.5 71.5q-105 0 -163.5 -71.5t-58.5 -204.5
t58.5 -205t163.5 -72q106 0 165 72zM531 869h-60v18q0 18 11.5 27.5t31.5 16.5q2 1 9.5 4.5t11 6.5t3.5 7q0 7 -10 11.5t-28 4.5q-28 0 -60 -11l-16 44q41 18 85 18q46 0 73.5 -17.5t27.5 -44.5q0 -19 -12 -28.5t-34 -18.5q-16 -7 -24.5 -13t-8.5 -16v-9zM314 765h-83
l122 144h64l122 -144h-83l-71 91z" />
    <glyph glyph-name="uni1ED6" unicode="&#x1ed6;" horiz-adv-x="771" 
d="M211.5 36q-73.5 44 -113.5 125t-40 191q0 111 39.5 192.5t113.5 125t174 43.5q101 0 175 -43.5t113.5 -125t39.5 -191.5t-39.5 -191.5t-113.5 -125.5t-175 -44q-100 0 -173.5 44zM550 148q59 72 59 205t-58.5 204.5t-165.5 71.5q-105 0 -163.5 -71.5t-58.5 -204.5
t58.5 -205t163.5 -72q106 0 165 72zM247 996.5q27 28.5 68 28.5q20 0 38 -6t44 -17q15 -7 30.5 -12t26.5 -5q20 0 32 12t13 29h51q0 -43 -27 -71.5t-68 -28.5q-20 0 -38 6t-44 17q-15 7 -30.5 12t-26.5 5q-20 0 -32 -12t-13 -29h-51q0 43 27 71.5zM314 765h-83l122 144h64
l122 -144h-83l-71 91z" />
    <glyph glyph-name="uni020C" unicode="&#x20c;" horiz-adv-x="771" 
d="M211.5 36q-73.5 44 -113.5 125t-40 191q0 111 39.5 192.5t113.5 125t174 43.5q101 0 175 -43.5t113.5 -125t39.5 -191.5t-39.5 -191.5t-113.5 -125.5t-175 -44q-100 0 -173.5 44zM550 148q59 72 59 205t-58.5 204.5t-165.5 71.5q-105 0 -163.5 -71.5t-58.5 -204.5
t58.5 -205t163.5 -72q106 0 165 72zM296 765l-98 153h79l72 -153h-53zM421 765l-98 153h79l72 -153h-53z" />
    <glyph glyph-name="Odieresis" unicode="&#xd6;" horiz-adv-x="771" 
d="M211.5 36q-73.5 44 -113.5 125t-40 191q0 111 39.5 192.5t113.5 125t174 43.5q101 0 175 -43.5t113.5 -125t39.5 -191.5t-39.5 -191.5t-113.5 -125.5t-175 -44q-100 0 -173.5 44zM550 148q59 72 59 205t-58.5 204.5t-165.5 71.5q-105 0 -163.5 -71.5t-58.5 -204.5
t58.5 -205t163.5 -72q106 0 165 72zM245 892h103v-99h-103v99zM422 892h103v-99h-103v99z" />
    <glyph glyph-name="uni022A" unicode="&#x22a;" horiz-adv-x="771" 
d="M211.5 36q-73.5 44 -113.5 125t-40 191q0 111 39.5 192.5t113.5 125t174 43.5q101 0 175 -43.5t113.5 -125t39.5 -191.5t-39.5 -191.5t-113.5 -125.5t-175 -44q-100 0 -173.5 44zM550 148q59 72 59 205t-58.5 204.5t-165.5 71.5q-105 0 -163.5 -71.5t-58.5 -204.5
t58.5 -205t163.5 -72q106 0 165 72zM245 892h103v-99h-103v99zM422 892h103v-99h-103v99zM233 967v70h304v-70h-304z" />
    <glyph glyph-name="uni0230" unicode="&#x230;" horiz-adv-x="771" 
d="M211.5 36q-73.5 44 -113.5 125t-40 191q0 111 39.5 192.5t113.5 125t174 43.5q101 0 175 -43.5t113.5 -125t39.5 -191.5t-39.5 -191.5t-113.5 -125.5t-175 -44q-100 0 -173.5 44zM550 148q59 72 59 205t-58.5 204.5t-165.5 71.5q-105 0 -163.5 -71.5t-58.5 -204.5
t58.5 -205t163.5 -72q106 0 165 72zM327 895h116v-106h-116v106zM233 967v70h304v-70h-304z" />
    <glyph glyph-name="uni1ECC" unicode="&#x1ecc;" horiz-adv-x="771" 
d="M211.5 36q-73.5 44 -113.5 125t-40 191q0 111 39.5 192.5t113.5 125t174 43.5q101 0 175 -43.5t113.5 -125t39.5 -191.5t-39.5 -191.5t-113.5 -125.5t-175 -44q-100 0 -173.5 44zM550 148q59 72 59 205t-58.5 204.5t-165.5 71.5q-105 0 -163.5 -71.5t-58.5 -204.5
t58.5 -205t163.5 -72q106 0 165 72zM332 -86h106v-101h-106v101z" />
    <glyph glyph-name="Ograve" unicode="&#xd2;" horiz-adv-x="771" 
d="M211.5 36q-73.5 44 -113.5 125t-40 191q0 111 39.5 192.5t113.5 125t174 43.5q101 0 175 -43.5t113.5 -125t39.5 -191.5t-39.5 -191.5t-113.5 -125.5t-175 -44q-100 0 -173.5 44zM550 148q59 72 59 205t-58.5 204.5t-165.5 71.5q-105 0 -163.5 -71.5t-58.5 -204.5
t58.5 -205t163.5 -72q106 0 165 72zM352 765l-138 153h103l101 -153h-66z" />
    <glyph glyph-name="uni1ECE" unicode="&#x1ece;" horiz-adv-x="771" 
d="M211.5 36q-73.5 44 -113.5 125t-40 191q0 111 39.5 192.5t113.5 125t174 43.5q101 0 175 -43.5t113.5 -125t39.5 -191.5t-39.5 -191.5t-113.5 -125.5t-175 -44q-100 0 -173.5 44zM550 148q59 72 59 205t-58.5 204.5t-165.5 71.5q-105 0 -163.5 -71.5t-58.5 -204.5
t58.5 -205t163.5 -72q106 0 165 72zM415 765h-59v19q0 17 11 27.5t30 19.5q14 7 19.5 11t5.5 11q0 8 -10 13t-28 5q-28 0 -60 -12l-16 46q43 17 85 17q46 0 73.5 -18t27.5 -46q0 -19 -12 -30t-34 -21q-18 -10 -25.5 -15.5t-7.5 -15.5v-11z" />
    <glyph glyph-name="Ohorn" unicode="&#x1a0;" horiz-adv-x="771" 
d="M679 697.5q-34 -39.5 -93 -47.5q62 -45 94.5 -120.5t32.5 -176.5q0 -110 -40 -191.5t-114 -125.5t-174 -44t-173.5 44t-113.5 125t-40 191q0 111 40 192.5t114 125t176 43.5q25 0 71 -4q42 -4 62 -4q56 1 79.5 25t23.5 82v17h89v-30q0 -62 -34 -101.5zM550 148
q59 72 59 205t-58.5 204.5t-165.5 71.5q-105 0 -163.5 -71.5t-58.5 -204.5t58.5 -205t163.5 -72q106 0 165 72z" />
    <glyph glyph-name="uni1EDA" unicode="&#x1eda;" horiz-adv-x="771" 
d="M679 697.5q-34 -39.5 -93 -47.5q62 -45 94.5 -120.5t32.5 -176.5q0 -110 -40 -191.5t-114 -125.5t-174 -44t-173.5 44t-113.5 125t-40 191q0 111 40 192.5t114 125t176 43.5q25 0 71 -4q42 -4 62 -4q56 1 79.5 25t23.5 82v17h89v-30q0 -62 -34 -101.5zM550 148
q59 72 59 205t-58.5 204.5t-165.5 71.5q-105 0 -163.5 -71.5t-58.5 -204.5t58.5 -205t163.5 -72q106 0 165 72zM418 765h-66l101 153h103z" />
    <glyph glyph-name="uni1EE2" unicode="&#x1ee2;" horiz-adv-x="771" 
d="M679 697.5q-34 -39.5 -93 -47.5q62 -45 94.5 -120.5t32.5 -176.5q0 -110 -40 -191.5t-114 -125.5t-174 -44t-173.5 44t-113.5 125t-40 191q0 111 40 192.5t114 125t176 43.5q25 0 71 -4q42 -4 62 -4q56 1 79.5 25t23.5 82v17h89v-30q0 -62 -34 -101.5zM550 148
q59 72 59 205t-58.5 204.5t-165.5 71.5q-105 0 -163.5 -71.5t-58.5 -204.5t58.5 -205t163.5 -72q106 0 165 72zM333 -86h106v-101h-106v101z" />
    <glyph glyph-name="uni1EDC" unicode="&#x1edc;" horiz-adv-x="771" 
d="M679 697.5q-34 -39.5 -93 -47.5q62 -45 94.5 -120.5t32.5 -176.5q0 -110 -40 -191.5t-114 -125.5t-174 -44t-173.5 44t-113.5 125t-40 191q0 111 40 192.5t114 125t176 43.5q25 0 71 -4q42 -4 62 -4q56 1 79.5 25t23.5 82v17h89v-30q0 -62 -34 -101.5zM550 148
q59 72 59 205t-58.5 204.5t-165.5 71.5q-105 0 -163.5 -71.5t-58.5 -204.5t58.5 -205t163.5 -72q106 0 165 72zM352 765l-138 153h103l101 -153h-66z" />
    <glyph glyph-name="uni1EDE" unicode="&#x1ede;" horiz-adv-x="771" 
d="M679 697.5q-34 -39.5 -93 -47.5q62 -45 94.5 -120.5t32.5 -176.5q0 -110 -40 -191.5t-114 -125.5t-174 -44t-173.5 44t-113.5 125t-40 191q0 111 40 192.5t114 125t176 43.5q25 0 71 -4q42 -4 62 -4q56 1 79.5 25t23.5 82v17h89v-30q0 -62 -34 -101.5zM550 148
q59 72 59 205t-58.5 204.5t-165.5 71.5q-105 0 -163.5 -71.5t-58.5 -204.5t58.5 -205t163.5 -72q106 0 165 72zM415 765h-59v19q0 17 11 27.5t30 19.5q14 7 19.5 11t5.5 11q0 8 -10 13t-28 5q-28 0 -60 -12l-16 46q43 17 85 17q46 0 73.5 -18t27.5 -46q0 -19 -12 -30
t-34 -21q-18 -10 -25.5 -15.5t-7.5 -15.5v-11z" />
    <glyph glyph-name="uni1EE0" unicode="&#x1ee0;" horiz-adv-x="771" 
d="M679 697.5q-34 -39.5 -93 -47.5q62 -45 94.5 -120.5t32.5 -176.5q0 -110 -40 -191.5t-114 -125.5t-174 -44t-173.5 44t-113.5 125t-40 191q0 111 40 192.5t114 125t176 43.5q25 0 71 -4q42 -4 62 -4q56 1 79.5 25t23.5 82v17h89v-30q0 -62 -34 -101.5zM550 148
q59 72 59 205t-58.5 204.5t-165.5 71.5q-105 0 -163.5 -71.5t-58.5 -204.5t58.5 -205t163.5 -72q106 0 165 72zM246 873.5q26 32.5 69 32.5q20 0 37.5 -8t44.5 -24q23 -13 34.5 -18.5t22.5 -5.5q20 0 32 15t13 38h51q0 -59 -26 -91.5t-69 -32.5q-20 0 -37.5 8t-44.5 24
q-23 13 -34.5 18.5t-22.5 5.5q-20 0 -32 -15t-13 -38h-51q0 59 26 91.5z" />
    <glyph glyph-name="Ohungarumlaut" unicode="&#x150;" horiz-adv-x="771" 
d="M211.5 36q-73.5 44 -113.5 125t-40 191q0 111 39.5 192.5t113.5 125t174 43.5q101 0 175 -43.5t113.5 -125t39.5 -191.5t-39.5 -191.5t-113.5 -125.5t-175 -44q-100 0 -173.5 44zM550 148q59 72 59 205t-58.5 204.5t-165.5 71.5q-105 0 -163.5 -71.5t-58.5 -204.5
t58.5 -205t163.5 -72q106 0 165 72zM512 918l-99 -153h-56l71 153h84z" />
    <glyph glyph-name="uni020E" unicode="&#x20e;" horiz-adv-x="771" 
d="M211.5 36q-73.5 44 -113.5 125t-40 191q0 111 39.5 192.5t113.5 125t174 43.5q101 0 175 -43.5t113.5 -125t39.5 -191.5t-39.5 -191.5t-113.5 -125.5t-175 -44q-100 0 -173.5 44zM550 148q59 72 59 205t-58.5 204.5t-165.5 71.5q-105 0 -163.5 -71.5t-58.5 -204.5
t58.5 -205t163.5 -72q106 0 165 72zM487.5 882q43.5 -26 64.5 -81l-56 -24q-21 36 -48 50t-63 14t-63 -14t-48 -50l-56 24q22 55 65.5 81t101.5 26q59 0 102.5 -26z" />
    <glyph glyph-name="Omacron" unicode="&#x14c;" horiz-adv-x="771" 
d="M211.5 36q-73.5 44 -113.5 125t-40 191q0 111 39.5 192.5t113.5 125t174 43.5q101 0 175 -43.5t113.5 -125t39.5 -191.5t-39.5 -191.5t-113.5 -125.5t-175 -44q-100 0 -173.5 44zM550 148q59 72 59 205t-58.5 204.5t-165.5 71.5q-105 0 -163.5 -71.5t-58.5 -204.5
t58.5 -205t163.5 -72q106 0 165 72zM233 807v70h304v-70h-304z" />
    <glyph glyph-name="uni1E52" unicode="&#x1e52;" horiz-adv-x="771" 
d="M211.5 36q-73.5 44 -113.5 125t-40 191q0 111 39.5 192.5t113.5 125t174 43.5q101 0 175 -43.5t113.5 -125t39.5 -191.5t-39.5 -191.5t-113.5 -125.5t-175 -44q-100 0 -173.5 44zM550 148q59 72 59 205t-58.5 204.5t-165.5 71.5q-105 0 -163.5 -71.5t-58.5 -204.5
t58.5 -205t163.5 -72q106 0 165 72zM233 807v70h304v-70h-304zM418 925h-66l101 153h103z" />
    <glyph glyph-name="uni1E50" unicode="&#x1e50;" horiz-adv-x="771" 
d="M211.5 36q-73.5 44 -113.5 125t-40 191q0 111 39.5 192.5t113.5 125t174 43.5q101 0 175 -43.5t113.5 -125t39.5 -191.5t-39.5 -191.5t-113.5 -125.5t-175 -44q-100 0 -173.5 44zM550 148q59 72 59 205t-58.5 204.5t-165.5 71.5q-105 0 -163.5 -71.5t-58.5 -204.5
t58.5 -205t163.5 -72q106 0 165 72zM233 807v70h304v-70h-304zM352 925l-138 153h103l101 -153h-66z" />
    <glyph glyph-name="uni01EA" unicode="&#x1ea;" horiz-adv-x="771" 
d="M415 -74q0 -28 17 -44t47 -16q24 0 56 16l17 -54q-39 -22 -90 -22q-53 0 -86.5 30t-33.5 76t31 80q-96 2 -167 46.5t-109.5 125t-38.5 188.5q0 111 39.5 192.5t113.5 125t174 43.5q101 0 175 -43.5t113.5 -125t39.5 -191.5q0 -136 -59.5 -226.5t-168.5 -122.5
q-70 -21 -70 -78zM550 148q59 72 59 205t-58.5 204.5t-165.5 71.5q-105 0 -163.5 -71.5t-58.5 -204.5t58.5 -205t163.5 -72q106 0 165 72z" />
    <glyph glyph-name="Oslash" unicode="&#xd8;" horiz-adv-x="771" 
d="M684 520.5q29 -73.5 29 -167.5q0 -110 -39.5 -191.5t-113.5 -125.5t-175 -44q-83 0 -146 30l-44 -75l-68 41l44 76q-55 48 -84 121.5t-29 166.5q0 111 39.5 192.5t113.5 125t174 43.5q81 0 147 -29l43 74l69 -41l-44 -76q55 -47 84 -120.5zM221 149l266 458
q-43 22 -102 22q-105 0 -163.5 -71.5t-58.5 -204.5q0 -132 58 -204zM550 148q59 72 59 205q0 132 -58 204l-268 -459q43 -22 102 -22q106 0 165 72z" />
    <glyph glyph-name="Oslashacute" unicode="&#x1fe;" horiz-adv-x="771" 
d="M684 520.5q29 -73.5 29 -167.5q0 -110 -39.5 -191.5t-113.5 -125.5t-175 -44q-83 0 -146 30l-44 -75l-68 41l44 76q-55 48 -84 121.5t-29 166.5q0 111 39.5 192.5t113.5 125t174 43.5q81 0 147 -29l43 74l69 -41l-44 -76q55 -47 84 -120.5zM221 149l266 458
q-43 22 -102 22q-105 0 -163.5 -71.5t-58.5 -204.5q0 -132 58 -204zM550 148q59 72 59 205q0 132 -58 204l-268 -459q43 -22 102 -22q106 0 165 72zM418 765h-66l101 153h103z" />
    <glyph glyph-name="Otilde" unicode="&#xd5;" horiz-adv-x="771" 
d="M211.5 36q-73.5 44 -113.5 125t-40 191q0 111 39.5 192.5t113.5 125t174 43.5q101 0 175 -43.5t113.5 -125t39.5 -191.5t-39.5 -191.5t-113.5 -125.5t-175 -44q-100 0 -173.5 44zM550 148q59 72 59 205t-58.5 204.5t-165.5 71.5q-105 0 -163.5 -71.5t-58.5 -204.5
t58.5 -205t163.5 -72q106 0 165 72zM246 873.5q26 32.5 69 32.5q20 0 37.5 -8t44.5 -24q23 -13 34.5 -18.5t22.5 -5.5q20 0 32 15t13 38h51q0 -59 -26 -91.5t-69 -32.5q-20 0 -37.5 8t-44.5 24q-23 13 -34.5 18.5t-22.5 5.5q-20 0 -32 -15t-13 -38h-51q0 59 26 91.5z" />
    <glyph glyph-name="uni1E4C" unicode="&#x1e4c;" horiz-adv-x="771" 
d="M211.5 36q-73.5 44 -113.5 125t-40 191q0 111 39.5 192.5t113.5 125t174 43.5q101 0 175 -43.5t113.5 -125t39.5 -191.5t-39.5 -191.5t-113.5 -125.5t-175 -44q-100 0 -173.5 44zM550 148q59 72 59 205t-58.5 204.5t-165.5 71.5q-105 0 -163.5 -71.5t-58.5 -204.5
t58.5 -205t163.5 -72q106 0 165 72zM246 873.5q26 32.5 69 32.5q20 0 37.5 -8t44.5 -24q23 -13 34.5 -18.5t22.5 -5.5q20 0 32 15t13 38h51q0 -59 -26 -91.5t-69 -32.5q-20 0 -37.5 8t-44.5 24q-23 13 -34.5 18.5t-22.5 5.5q-20 0 -32 -15t-13 -38h-51q0 59 26 91.5z
M418 925h-66l101 153h103z" />
    <glyph glyph-name="uni1E4E" unicode="&#x1e4e;" horiz-adv-x="771" 
d="M211.5 36q-73.5 44 -113.5 125t-40 191q0 111 39.5 192.5t113.5 125t174 43.5q101 0 175 -43.5t113.5 -125t39.5 -191.5t-39.5 -191.5t-113.5 -125.5t-175 -44q-100 0 -173.5 44zM550 148q59 72 59 205t-58.5 204.5t-165.5 71.5q-105 0 -163.5 -71.5t-58.5 -204.5
t58.5 -205t163.5 -72q106 0 165 72zM246 873.5q26 32.5 69 32.5q20 0 37.5 -8t44.5 -24q23 -13 34.5 -18.5t22.5 -5.5q20 0 32 15t13 38h51q0 -59 -26 -91.5t-69 -32.5q-20 0 -37.5 8t-44.5 24q-23 13 -34.5 18.5t-22.5 5.5q-20 0 -32 -15t-13 -38h-51q0 59 26 91.5z
M245 1052h103v-99h-103v99zM422 1052h103v-99h-103v99z" />
    <glyph glyph-name="uni022C" unicode="&#x22c;" horiz-adv-x="771" 
d="M211.5 36q-73.5 44 -113.5 125t-40 191q0 111 39.5 192.5t113.5 125t174 43.5q101 0 175 -43.5t113.5 -125t39.5 -191.5t-39.5 -191.5t-113.5 -125.5t-175 -44q-100 0 -173.5 44zM550 148q59 72 59 205t-58.5 204.5t-165.5 71.5q-105 0 -163.5 -71.5t-58.5 -204.5
t58.5 -205t163.5 -72q106 0 165 72zM246 873.5q26 32.5 69 32.5q20 0 37.5 -8t44.5 -24q23 -13 34.5 -18.5t22.5 -5.5q20 0 32 15t13 38h51q0 -59 -26 -91.5t-69 -32.5q-20 0 -37.5 8t-44.5 24q-23 13 -34.5 18.5t-22.5 5.5q-20 0 -32 -15t-13 -38h-51q0 59 26 91.5z
M233 967v70h304v-70h-304z" />
    <glyph glyph-name="OE" unicode="&#x152;" horiz-adv-x="1045" 
d="M151.5 92.5q-93.5 92.5 -93.5 260.5t93.5 260t264.5 92h583v-83h-357v-222h337v-84h-337v-233h357v-83h-583q-171 0 -264.5 92.5zM541 83v539h-119q-259 0 -259 -269q0 -134 65.5 -202t193.5 -68h119z" />
    <glyph glyph-name="P" unicode="P" horiz-adv-x="652" 
d="M82 705h292q112 0 174 -55t62 -156q0 -100 -62 -156t-174 -56h-189v-282h-103v705zM363 365q148 0 148 129q0 128 -148 128h-178v-257h178z" />
    <glyph glyph-name="Thorn" unicode="&#xde;" horiz-adv-x="652" 
d="M549.5 502.5q60.5 -51.5 60.5 -143.5t-61 -144t-169 -52h-196v-163h-102v705h102v-151h196q109 0 169.5 -51.5zM475 273q36 28 36 86t-35.5 85t-109.5 27h-182v-226h182q73 0 109 28z" />
    <glyph glyph-name="Q" unicode="Q" horiz-adv-x="771" 
d="M561.5 -5.5q17.5 -16.5 35.5 -44.5l69 -112l-87 -43l-89 145q-32 52 -105 52q-100 0 -173.5 44t-113.5 125t-40 191q0 111 39.5 192.5t113.5 125t174 43.5q101 0 175 -43.5t113.5 -125t39.5 -191.5q0 -123 -50 -210.5t-141 -124.5q22 -7 39.5 -23.5zM221.5 148
q58.5 -72 163.5 -72q106 0 165 72t59 205t-58.5 204.5t-165.5 71.5q-105 0 -163.5 -71.5t-58.5 -204.5t58.5 -205z" />
    <glyph glyph-name="R" unicode="R" horiz-adv-x="690" 
d="M654 0h-114l-120 226q-20 36 -47.5 50.5t-72.5 14.5h-116v-291h-102v705h300q117 0 178.5 -52t61.5 -152q0 -81 -45.5 -133t-129.5 -66q52 -16 86 -78zM370 374q78 0 115.5 30.5t37.5 94.5t-37 93.5t-116 29.5h-187v-248h187z" />
    <glyph glyph-name="Racute" unicode="&#x154;" horiz-adv-x="690" 
d="M654 0h-114l-120 226q-20 36 -47.5 50.5t-72.5 14.5h-116v-291h-102v705h300q117 0 178.5 -52t61.5 -152q0 -81 -45.5 -133t-129.5 -66q52 -16 86 -78zM370 374q78 0 115.5 30.5t37.5 94.5t-37 93.5t-116 29.5h-187v-248h187zM377 765h-66l101 153h103z" />
    <glyph glyph-name="Rcaron" unicode="&#x158;" horiz-adv-x="690" 
d="M654 0h-114l-120 226q-20 36 -47.5 50.5t-72.5 14.5h-116v-291h-102v705h300q117 0 178.5 -52t61.5 -152q0 -81 -45.5 -133t-129.5 -66q52 -16 86 -78zM370 374q78 0 115.5 30.5t37.5 94.5t-37 93.5t-116 29.5h-187v-248h187zM414 918h84l-122 -153h-64l-122 153h84
l70 -98z" />
    <glyph glyph-name="Rcommaaccent" unicode="&#x156;" horiz-adv-x="690" 
d="M654 0h-114l-120 226q-20 36 -47.5 50.5t-72.5 14.5h-116v-291h-102v705h300q117 0 178.5 -52t61.5 -152q0 -81 -45.5 -133t-129.5 -66q52 -16 86 -78zM370 374q78 0 115.5 30.5t37.5 94.5t-37 93.5t-116 29.5h-187v-248h187zM400 -70v-60q0 -42 -12 -74t-41 -60l-42 30
q18 18 26 35t10 37h-54v92h113z" />
    <glyph glyph-name="uni0210" unicode="&#x210;" horiz-adv-x="690" 
d="M654 0h-114l-120 226q-20 36 -47.5 50.5t-72.5 14.5h-116v-291h-102v705h300q117 0 178.5 -52t61.5 -152q0 -81 -45.5 -133t-129.5 -66q52 -16 86 -78zM370 374q78 0 115.5 30.5t37.5 94.5t-37 93.5t-116 29.5h-187v-248h187zM255 765l-98 153h79l72 -153h-53zM380 765
l-98 153h79l72 -153h-53z" />
    <glyph glyph-name="uni1E5A" unicode="&#x1e5a;" horiz-adv-x="690" 
d="M654 0h-114l-120 226q-20 36 -47.5 50.5t-72.5 14.5h-116v-291h-102v705h300q117 0 178.5 -52t61.5 -152q0 -81 -45.5 -133t-129.5 -66q52 -16 86 -78zM370 374q78 0 115.5 30.5t37.5 94.5t-37 93.5t-116 29.5h-187v-248h187zM291 -86h106v-101h-106v101z" />
    <glyph glyph-name="uni0212" unicode="&#x212;" horiz-adv-x="690" 
d="M654 0h-114l-120 226q-20 36 -47.5 50.5t-72.5 14.5h-116v-291h-102v705h300q117 0 178.5 -52t61.5 -152q0 -81 -45.5 -133t-129.5 -66q52 -16 86 -78zM370 374q78 0 115.5 30.5t37.5 94.5t-37 93.5t-116 29.5h-187v-248h187zM446.5 882q43.5 -26 64.5 -81l-56 -24
q-21 36 -48 50t-63 14t-63 -14t-48 -50l-56 24q22 55 65.5 81t101.5 26q59 0 102.5 -26z" />
    <glyph glyph-name="uni1E5E" unicode="&#x1e5e;" horiz-adv-x="690" 
d="M654 0h-114l-120 226q-20 36 -47.5 50.5t-72.5 14.5h-116v-291h-102v705h300q117 0 178.5 -52t61.5 -152q0 -81 -45.5 -133t-129.5 -66q52 -16 86 -78zM370 374q78 0 115.5 30.5t37.5 94.5t-37 93.5t-116 29.5h-187v-248h187zM192 -170v67h304v-67h-304z" />
    <glyph glyph-name="S" unicode="S" horiz-adv-x="627" 
d="M162.5 14q-68.5 22 -117.5 65l37 76q52 -42 107.5 -60.5t124.5 -18.5q79 0 122 29.5t43 83.5q0 46 -40 68.5t-128 42.5q-84 18 -138 41t-84.5 62.5t-30.5 100.5q0 62 32.5 109t92.5 73.5t139 26.5q74 0 139.5 -22.5t107.5 -64.5l-36 -76q-49 40 -100.5 59.5t-109.5 19.5
q-76 0 -119.5 -31.5t-43.5 -87.5q0 -48 38 -72.5t122 -44.5q88 -20 142.5 -41.5t87 -59t32.5 -97.5q0 -61 -32.5 -107t-93 -71t-143.5 -25q-82 0 -150.5 22z" />
    <glyph glyph-name="Sacute" unicode="&#x15a;" horiz-adv-x="627" 
d="M162.5 14q-68.5 22 -117.5 65l37 76q52 -42 107.5 -60.5t124.5 -18.5q79 0 122 29.5t43 83.5q0 46 -40 68.5t-128 42.5q-84 18 -138 41t-84.5 62.5t-30.5 100.5q0 62 32.5 109t92.5 73.5t139 26.5q74 0 139.5 -22.5t107.5 -64.5l-36 -76q-49 40 -100.5 59.5t-109.5 19.5
q-76 0 -119.5 -31.5t-43.5 -87.5q0 -48 38 -72.5t122 -44.5q88 -20 142.5 -41.5t87 -59t32.5 -97.5q0 -61 -32.5 -107t-93 -71t-143.5 -25q-82 0 -150.5 22zM348 765h-66l101 153h103z" />
    <glyph glyph-name="uni1E64" unicode="&#x1e64;" horiz-adv-x="627" 
d="M162.5 14q-68.5 22 -117.5 65l37 76q52 -42 107.5 -60.5t124.5 -18.5q79 0 122 29.5t43 83.5q0 46 -40 68.5t-128 42.5q-84 18 -138 41t-84.5 62.5t-30.5 100.5q0 62 32.5 109t92.5 73.5t139 26.5q74 0 139.5 -22.5t107.5 -64.5l-36 -76q-49 40 -100.5 59.5t-109.5 19.5
q-76 0 -119.5 -31.5t-43.5 -87.5q0 -48 38 -72.5t122 -44.5q88 -20 142.5 -41.5t87 -59t32.5 -97.5q0 -61 -32.5 -107t-93 -71t-143.5 -25q-82 0 -150.5 22zM360 765h-66l101 153h103zM141 917h116v-106h-116v106z" />
    <glyph glyph-name="Scaron" unicode="&#x160;" horiz-adv-x="627" 
d="M162.5 14q-68.5 22 -117.5 65l37 76q52 -42 107.5 -60.5t124.5 -18.5q79 0 122 29.5t43 83.5q0 46 -40 68.5t-128 42.5q-84 18 -138 41t-84.5 62.5t-30.5 100.5q0 62 32.5 109t92.5 73.5t139 26.5q74 0 139.5 -22.5t107.5 -64.5l-36 -76q-49 40 -100.5 59.5t-109.5 19.5
q-76 0 -119.5 -31.5t-43.5 -87.5q0 -48 38 -72.5t122 -44.5q88 -20 142.5 -41.5t87 -59t32.5 -97.5q0 -61 -32.5 -107t-93 -71t-143.5 -25q-82 0 -150.5 22zM385 918h84l-122 -153h-64l-122 153h84l70 -98z" />
    <glyph glyph-name="uni1E66" unicode="&#x1e66;" horiz-adv-x="627" 
d="M162.5 14q-68.5 22 -117.5 65l37 76q52 -42 107.5 -60.5t124.5 -18.5q79 0 122 29.5t43 83.5q0 46 -40 68.5t-128 42.5q-84 18 -138 41t-84.5 62.5t-30.5 100.5q0 62 32.5 109t92.5 73.5t139 26.5q74 0 139.5 -22.5t107.5 -64.5l-36 -76q-49 40 -100.5 59.5t-109.5 19.5
q-76 0 -119.5 -31.5t-43.5 -87.5q0 -48 38 -72.5t122 -44.5q88 -20 142.5 -41.5t87 -59t32.5 -97.5q0 -61 -32.5 -107t-93 -71t-143.5 -25q-82 0 -150.5 22zM385 918h84l-122 -153h-64l-122 153h84l70 -98zM257 1055h116v-106h-116v106z" />
    <glyph glyph-name="Scedilla" unicode="&#x15e;" horiz-adv-x="627" 
d="M516.5 52.5q-65.5 -54.5 -179.5 -59.5l-5 -36q14 2 21 2q34 0 56 -17.5t22 -51.5q0 -37 -32 -60.5t-89 -23.5q-21 0 -46 5t-44 14l13 47q37 -14 76 -14q25 0 39 8t14 24q0 25 -35 25q-18 0 -42 -8l-20 17l8 69q-143 11 -228 86l37 76q52 -42 107.5 -60.5t124.5 -18.5
q79 0 122 29.5t43 83.5q0 46 -40 68.5t-128 42.5q-84 18 -138 41t-84.5 62.5t-30.5 100.5q0 62 32.5 109t92.5 73.5t139 26.5q74 0 139.5 -22.5t107.5 -64.5l-36 -76q-49 40 -100.5 59.5t-109.5 19.5q-76 0 -119.5 -31.5t-43.5 -87.5q0 -48 38 -72.5t122 -44.5
q88 -20 142.5 -41.5t87 -59t32.5 -97.5q0 -88 -65.5 -142.5z" />
    <glyph glyph-name="Scircumflex" unicode="&#x15c;" horiz-adv-x="627" 
d="M162.5 14q-68.5 22 -117.5 65l37 76q52 -42 107.5 -60.5t124.5 -18.5q79 0 122 29.5t43 83.5q0 46 -40 68.5t-128 42.5q-84 18 -138 41t-84.5 62.5t-30.5 100.5q0 62 32.5 109t92.5 73.5t139 26.5q74 0 139.5 -22.5t107.5 -64.5l-36 -76q-49 40 -100.5 59.5t-109.5 19.5
q-76 0 -119.5 -31.5t-43.5 -87.5q0 -48 38 -72.5t122 -44.5q88 -20 142.5 -41.5t87 -59t32.5 -97.5q0 -61 -32.5 -107t-93 -71t-143.5 -25q-82 0 -150.5 22zM245 765h-84l122 153h64l122 -153h-84l-70 98z" />
    <glyph glyph-name="Scommaaccent" unicode="&#x218;" horiz-adv-x="627" 
d="M162.5 14q-68.5 22 -117.5 65l37 76q52 -42 107.5 -60.5t124.5 -18.5q79 0 122 29.5t43 83.5q0 46 -40 68.5t-128 42.5q-84 18 -138 41t-84.5 62.5t-30.5 100.5q0 62 32.5 109t92.5 73.5t139 26.5q74 0 139.5 -22.5t107.5 -64.5l-36 -76q-49 40 -100.5 59.5t-109.5 19.5
q-76 0 -119.5 -31.5t-43.5 -87.5q0 -48 38 -72.5t122 -44.5q88 -20 142.5 -41.5t87 -59t32.5 -97.5q0 -61 -32.5 -107t-93 -71t-143.5 -25q-82 0 -150.5 22zM371 -70v-60q0 -42 -12 -74t-41 -60l-42 30q18 18 26 35t10 37h-54v92h113z" />
    <glyph glyph-name="uni1E60" unicode="&#x1e60;" horiz-adv-x="627" 
d="M162.5 14q-68.5 22 -117.5 65l37 76q52 -42 107.5 -60.5t124.5 -18.5q79 0 122 29.5t43 83.5q0 46 -40 68.5t-128 42.5q-84 18 -138 41t-84.5 62.5t-30.5 100.5q0 62 32.5 109t92.5 73.5t139 26.5q74 0 139.5 -22.5t107.5 -64.5l-36 -76q-49 40 -100.5 59.5t-109.5 19.5
q-76 0 -119.5 -31.5t-43.5 -87.5q0 -48 38 -72.5t122 -44.5q88 -20 142.5 -41.5t87 -59t32.5 -97.5q0 -61 -32.5 -107t-93 -71t-143.5 -25q-82 0 -150.5 22zM257 895h116v-106h-116v106z" />
    <glyph glyph-name="uni1E62" unicode="&#x1e62;" horiz-adv-x="627" 
d="M162.5 14q-68.5 22 -117.5 65l37 76q52 -42 107.5 -60.5t124.5 -18.5q79 0 122 29.5t43 83.5q0 46 -40 68.5t-128 42.5q-84 18 -138 41t-84.5 62.5t-30.5 100.5q0 62 32.5 109t92.5 73.5t139 26.5q74 0 139.5 -22.5t107.5 -64.5l-36 -76q-49 40 -100.5 59.5t-109.5 19.5
q-76 0 -119.5 -31.5t-43.5 -87.5q0 -48 38 -72.5t122 -44.5q88 -20 142.5 -41.5t87 -59t32.5 -97.5q0 -61 -32.5 -107t-93 -71t-143.5 -25q-82 0 -150.5 22zM262 -86h106v-101h-106v101z" />
    <glyph glyph-name="uni1E68" unicode="&#x1e68;" horiz-adv-x="627" 
d="M162.5 14q-68.5 22 -117.5 65l37 76q52 -42 107.5 -60.5t124.5 -18.5q79 0 122 29.5t43 83.5q0 46 -40 68.5t-128 42.5q-84 18 -138 41t-84.5 62.5t-30.5 100.5q0 62 32.5 109t92.5 73.5t139 26.5q74 0 139.5 -22.5t107.5 -64.5l-36 -76q-49 40 -100.5 59.5t-109.5 19.5
q-76 0 -119.5 -31.5t-43.5 -87.5q0 -48 38 -72.5t122 -44.5q88 -20 142.5 -41.5t87 -59t32.5 -97.5q0 -61 -32.5 -107t-93 -71t-143.5 -25q-82 0 -150.5 22zM262 -86h106v-101h-106v101zM257 895h116v-106h-116v106z" />
    <glyph glyph-name="uni1E9E" unicode="&#x1e9e;" horiz-adv-x="695" 
d="M603.5 307.5q38.5 -45.5 38.5 -113.5q0 -58 -28 -104t-77.5 -71.5t-113.5 -25.5q-108 0 -184 62l31 77q40 -30 75.5 -43.5t71.5 -13.5q59 1 92 33.5t33 89.5q0 60 -38.5 89t-118.5 29h-119v83h92q65 0 100.5 30t35.5 85q0 53 -37 83t-102 30q-86 0 -128.5 -44t-42.5 -133
v-450h-102v452q0 127 70.5 193.5t204.5 66.5q108 0 172 -51.5t64 -139.5q0 -54 -26 -94t-73 -59q71 -15 109.5 -60.5z" />
    <glyph glyph-name="uni018F" unicode="&#x18f;" horiz-adv-x="749" 
d="M532.5 669.5q76.5 -43.5 117.5 -124.5t41 -192q0 -108 -38.5 -190t-109 -126.5t-164.5 -44.5q-99 0 -171 43t-111 124t-39 193v47h528q-10 111 -71 170t-165 59q-124 0 -217 -78l-37 76q45 41 114 64t142 23q104 0 180.5 -43.5zM525.5 137.5q54.5 61.5 61.5 177.5h-424
q7 -115 62.5 -177t151.5 -62q94 0 148.5 61.5z" />
    <glyph glyph-name="T" unicode="T" horiz-adv-x="605" 
d="M250 0v619h-238v86h581v-86h-239v-619h-104z" />
    <glyph glyph-name="Tbar" unicode="&#x166;" horiz-adv-x="605" 
d="M593 619h-239v-221h141v-81h-141v-317h-104v317h-140v81h140v221h-238v86h581v-86z" />
    <glyph glyph-name="Tcaron" unicode="&#x164;" horiz-adv-x="605" 
d="M250 0v619h-238v86h581v-86h-239v-619h-104zM372 918h84l-122 -153h-64l-122 153h84l70 -98z" />
    <glyph glyph-name="uni0162" unicode="&#x162;" horiz-adv-x="605" 
d="M325 0l-6 -43q14 2 21 2q34 0 56 -17.5t22 -51.5q0 -37 -32 -60.5t-89 -23.5q-21 0 -46 5t-44 14l13 47q37 -14 76 -14q25 0 39 8t14 24q0 25 -35 25q-18 0 -42 -8l-20 17l9 76h-11v619h-238v86h581v-86h-239v-619h-29z" />
    <glyph glyph-name="uni021A" unicode="&#x21a;" horiz-adv-x="605" 
d="M250 0v619h-238v86h581v-86h-239v-619h-104zM358 -70v-60q0 -42 -12 -74t-41 -60l-42 30q18 18 26 35t10 37h-54v92h113z" />
    <glyph glyph-name="uni1E6C" unicode="&#x1e6c;" horiz-adv-x="605" 
d="M250 0v619h-238v86h581v-86h-239v-619h-104zM249 -86h106v-101h-106v101z" />
    <glyph glyph-name="uni1E6E" unicode="&#x1e6e;" horiz-adv-x="605" 
d="M250 0v619h-238v86h581v-86h-239v-619h-104zM150 -170v67h304v-67h-304z" />
    <glyph glyph-name="U" unicode="U" horiz-adv-x="728" 
d="M150 65q-73 73 -73 215v425h102v-432q0 -97 46.5 -147t138.5 -50q91 0 138 50t47 147v432h102v-425q0 -141 -73.5 -214.5t-213.5 -73.5q-141 0 -214 73z" />
    <glyph glyph-name="Uacute" unicode="&#xda;" horiz-adv-x="728" 
d="M150 65q-73 73 -73 215v425h102v-432q0 -97 46.5 -147t138.5 -50q91 0 138 50t47 147v432h102v-425q0 -141 -73.5 -214.5t-213.5 -73.5q-141 0 -214 73zM397 765h-66l101 153h103z" />
    <glyph glyph-name="Ubreve" unicode="&#x16c;" horiz-adv-x="728" 
d="M150 65q-73 73 -73 215v425h102v-432q0 -97 46.5 -147t138.5 -50q91 0 138 50t47 147v432h102v-425q0 -141 -73.5 -214.5t-213.5 -73.5q-141 0 -214 73zM261.5 802q-43.5 26 -64.5 81l56 24q21 -36 48 -50t63 -14t63 14t48 50l56 -24q-22 -55 -65.5 -81t-101.5 -26
q-59 0 -102.5 26z" />
    <glyph glyph-name="Ucircumflex" unicode="&#xdb;" horiz-adv-x="728" 
d="M150 65q-73 73 -73 215v425h102v-432q0 -97 46.5 -147t138.5 -50q91 0 138 50t47 147v432h102v-425q0 -141 -73.5 -214.5t-213.5 -73.5q-141 0 -214 73zM294 765h-84l122 153h64l122 -153h-84l-70 98z" />
    <glyph glyph-name="uni0214" unicode="&#x214;" horiz-adv-x="728" 
d="M150 65q-73 73 -73 215v425h102v-432q0 -97 46.5 -147t138.5 -50q91 0 138 50t47 147v432h102v-425q0 -141 -73.5 -214.5t-213.5 -73.5q-141 0 -214 73zM275 765l-98 153h79l72 -153h-53zM400 765l-98 153h79l72 -153h-53z" />
    <glyph glyph-name="Udieresis" unicode="&#xdc;" horiz-adv-x="728" 
d="M150 65q-73 73 -73 215v425h102v-432q0 -97 46.5 -147t138.5 -50q91 0 138 50t47 147v432h102v-425q0 -141 -73.5 -214.5t-213.5 -73.5q-141 0 -214 73zM224 892h103v-99h-103v99zM401 892h103v-99h-103v99z" />
    <glyph glyph-name="uni1EE4" unicode="&#x1ee4;" horiz-adv-x="728" 
d="M150 65q-73 73 -73 215v425h102v-432q0 -97 46.5 -147t138.5 -50q91 0 138 50t47 147v432h102v-425q0 -141 -73.5 -214.5t-213.5 -73.5q-141 0 -214 73zM311 -86h106v-101h-106v101z" />
    <glyph glyph-name="Ugrave" unicode="&#xd9;" horiz-adv-x="728" 
d="M150 65q-73 73 -73 215v425h102v-432q0 -97 46.5 -147t138.5 -50q91 0 138 50t47 147v432h102v-425q0 -141 -73.5 -214.5t-213.5 -73.5q-141 0 -214 73zM331 765l-138 153h103l101 -153h-66z" />
    <glyph glyph-name="uni1EE6" unicode="&#x1ee6;" horiz-adv-x="728" 
d="M150 65q-73 73 -73 215v425h102v-432q0 -97 46.5 -147t138.5 -50q91 0 138 50t47 147v432h102v-425q0 -141 -73.5 -214.5t-213.5 -73.5q-141 0 -214 73zM394 765h-59v19q0 17 11 27.5t30 19.5q14 7 19.5 11t5.5 11q0 8 -10 13t-28 5q-28 0 -60 -12l-16 46q43 17 85 17
q46 0 73.5 -18t27.5 -46q0 -19 -12 -30t-34 -21q-18 -10 -25.5 -15.5t-7.5 -15.5v-11z" />
    <glyph glyph-name="Uhorn" unicode="&#x1af;" horiz-adv-x="728" 
d="M767 829v-30q0 -59 -30.5 -97.5t-85.5 -49.5v-372q0 -141 -73.5 -214.5t-213.5 -73.5q-141 0 -214 73t-73 215v425h102v-432q0 -97 46.5 -147t138.5 -50q91 0 138 50t47 147v432h30q53 1 76 25t23 82v17h89z" />
    <glyph glyph-name="uni1EE8" unicode="&#x1ee8;" horiz-adv-x="728" 
d="M767 829v-30q0 -59 -30.5 -97.5t-85.5 -49.5v-372q0 -141 -73.5 -214.5t-213.5 -73.5q-141 0 -214 73t-73 215v425h102v-432q0 -97 46.5 -147t138.5 -50q91 0 138 50t47 147v432h30q53 1 76 25t23 82v17h89zM397 765h-66l101 153h103z" />
    <glyph glyph-name="uni1EF0" unicode="&#x1ef0;" horiz-adv-x="728" 
d="M767 829v-30q0 -59 -30.5 -97.5t-85.5 -49.5v-372q0 -141 -73.5 -214.5t-213.5 -73.5q-141 0 -214 73t-73 215v425h102v-432q0 -97 46.5 -147t138.5 -50q91 0 138 50t47 147v432h30q53 1 76 25t23 82v17h89zM311 -86h106v-101h-106v101z" />
    <glyph glyph-name="uni1EEA" unicode="&#x1eea;" horiz-adv-x="728" 
d="M767 829v-30q0 -59 -30.5 -97.5t-85.5 -49.5v-372q0 -141 -73.5 -214.5t-213.5 -73.5q-141 0 -214 73t-73 215v425h102v-432q0 -97 46.5 -147t138.5 -50q91 0 138 50t47 147v432h30q53 1 76 25t23 82v17h89zM331 765l-138 153h103l101 -153h-66z" />
    <glyph glyph-name="uni1EEC" unicode="&#x1eec;" horiz-adv-x="728" 
d="M767 829v-30q0 -59 -30.5 -97.5t-85.5 -49.5v-372q0 -141 -73.5 -214.5t-213.5 -73.5q-141 0 -214 73t-73 215v425h102v-432q0 -97 46.5 -147t138.5 -50q91 0 138 50t47 147v432h30q53 1 76 25t23 82v17h89zM394 765h-59v19q0 17 11 27.5t30 19.5q14 7 19.5 11t5.5 11
q0 8 -10 13t-28 5q-28 0 -60 -12l-16 46q43 17 85 17q46 0 73.5 -18t27.5 -46q0 -19 -12 -30t-34 -21q-18 -10 -25.5 -15.5t-7.5 -15.5v-11z" />
    <glyph glyph-name="uni1EEE" unicode="&#x1eee;" horiz-adv-x="728" 
d="M767 829v-30q0 -59 -30.5 -97.5t-85.5 -49.5v-372q0 -141 -73.5 -214.5t-213.5 -73.5q-141 0 -214 73t-73 215v425h102v-432q0 -97 46.5 -147t138.5 -50q91 0 138 50t47 147v432h30q53 1 76 25t23 82v17h89zM225 873.5q26 32.5 69 32.5q20 0 37.5 -8t44.5 -24
q23 -13 34.5 -18.5t22.5 -5.5q20 0 32 15t13 38h51q0 -59 -26 -91.5t-69 -32.5q-20 0 -37.5 8t-44.5 24q-23 13 -34.5 18.5t-22.5 5.5q-20 0 -32 -15t-13 -38h-51q0 59 26 91.5z" />
    <glyph glyph-name="Uhungarumlaut" unicode="&#x170;" horiz-adv-x="728" 
d="M150 65q-73 73 -73 215v425h102v-432q0 -97 46.5 -147t138.5 -50q91 0 138 50t47 147v432h102v-425q0 -141 -73.5 -214.5t-213.5 -73.5q-141 0 -214 73zM491 918l-99 -153h-56l71 153h84z" />
    <glyph glyph-name="uni0216" unicode="&#x216;" horiz-adv-x="728" 
d="M150 65q-73 73 -73 215v425h102v-432q0 -97 46.5 -147t138.5 -50q91 0 138 50t47 147v432h102v-425q0 -141 -73.5 -214.5t-213.5 -73.5q-141 0 -214 73zM466.5 882q43.5 -26 64.5 -81l-56 -24q-21 36 -48 50t-63 14t-63 -14t-48 -50l-56 24q22 55 65.5 81t101.5 26
q59 0 102.5 -26z" />
    <glyph glyph-name="Umacron" unicode="&#x16a;" horiz-adv-x="728" 
d="M150 65q-73 73 -73 215v425h102v-432q0 -97 46.5 -147t138.5 -50q91 0 138 50t47 147v432h102v-425q0 -141 -73.5 -214.5t-213.5 -73.5q-141 0 -214 73zM212 807v70h304v-70h-304z" />
    <glyph glyph-name="uni1E7A" unicode="&#x1e7a;" horiz-adv-x="728" 
d="M150 65q-73 73 -73 215v425h102v-432q0 -97 46.5 -147t138.5 -50q91 0 138 50t47 147v432h102v-425q0 -141 -73.5 -214.5t-213.5 -73.5q-141 0 -214 73zM212 807v70h304v-70h-304zM224 1052h103v-99h-103v99zM401 1052h103v-99h-103v99z" />
    <glyph glyph-name="Uogonek" unicode="&#x172;" horiz-adv-x="728" 
d="M651 705v-425q0 -110 -45 -179t-132 -95q-75 -24 -75 -80q0 -28 17 -44t47 -16q25 0 57 16l16 -54q-39 -22 -89 -22q-53 0 -86.5 29.5t-33.5 76.5q0 48 36 80q-141 1 -213.5 74t-72.5 214v425h102v-432q0 -97 46.5 -147t138.5 -50q91 0 138 50t47 147v432h102z" />
    <glyph glyph-name="Uring" unicode="&#x16e;" horiz-adv-x="728" 
d="M150 65q-73 73 -73 215v425h102v-432q0 -97 46.5 -147t138.5 -50q91 0 138 50t47 147v432h102v-425q0 -141 -73.5 -214.5t-213.5 -73.5q-141 0 -214 73zM290.5 789.5q-30.5 29.5 -30.5 72.5q0 42 30.5 71.5t73.5 29.5t73.5 -29.5t30.5 -71.5q0 -43 -30.5 -72.5
t-73.5 -29.5t-73.5 29.5zM397.5 827q13.5 14 13.5 35q0 20 -13.5 34t-33.5 14t-33.5 -14t-13.5 -34q0 -21 13.5 -35t33.5 -14t33.5 14z" />
    <glyph glyph-name="Utilde" unicode="&#x168;" horiz-adv-x="728" 
d="M150 65q-73 73 -73 215v425h102v-432q0 -97 46.5 -147t138.5 -50q91 0 138 50t47 147v432h102v-425q0 -141 -73.5 -214.5t-213.5 -73.5q-141 0 -214 73zM225 873.5q26 32.5 69 32.5q20 0 37.5 -8t44.5 -24q23 -13 34.5 -18.5t22.5 -5.5q20 0 32 15t13 38h51
q0 -59 -26 -91.5t-69 -32.5q-20 0 -37.5 8t-44.5 24q-23 13 -34.5 18.5t-22.5 5.5q-20 0 -32 -15t-13 -38h-51q0 59 26 91.5z" />
    <glyph glyph-name="uni1E78" unicode="&#x1e78;" horiz-adv-x="728" 
d="M150 65q-73 73 -73 215v425h102v-432q0 -97 46.5 -147t138.5 -50q91 0 138 50t47 147v432h102v-425q0 -141 -73.5 -214.5t-213.5 -73.5q-141 0 -214 73zM225 873.5q26 32.5 69 32.5q20 0 37.5 -8t44.5 -24q23 -13 34.5 -18.5t22.5 -5.5q20 0 32 15t13 38h51
q0 -59 -26 -91.5t-69 -32.5q-20 0 -37.5 8t-44.5 24q-23 13 -34.5 18.5t-22.5 5.5q-20 0 -32 -15t-13 -38h-51q0 59 26 91.5zM397 925h-66l101 153h103z" />
    <glyph glyph-name="V" unicode="V" horiz-adv-x="701" 
d="M600 705h105l-311 -705h-87l-310 705h107l248 -575z" />
    <glyph glyph-name="W" unicode="W" horiz-adv-x="1105" 
d="M976 705h100l-248 -705h-85l-190 546l-192 -546h-85l-247 705h104l189 -559l195 559l76 -1l191 -561z" />
    <glyph glyph-name="Wacute" unicode="&#x1e82;" horiz-adv-x="1105" 
d="M976 705h100l-248 -705h-85l-190 546l-192 -546h-85l-247 705h104l189 -559l195 559l76 -1l191 -561zM585 765h-66l101 153h103z" />
    <glyph glyph-name="Wcircumflex" unicode="&#x174;" horiz-adv-x="1105" 
d="M976 705h100l-248 -705h-85l-190 546l-192 -546h-85l-247 705h104l189 -559l195 559l76 -1l191 -561zM482 765h-84l122 153h64l122 -153h-84l-70 98z" />
    <glyph glyph-name="Wdieresis" unicode="&#x1e84;" horiz-adv-x="1105" 
d="M976 705h100l-248 -705h-85l-190 546l-192 -546h-85l-247 705h104l189 -559l195 559l76 -1l191 -561zM412 892h103v-99h-103v99zM589 892h103v-99h-103v99z" />
    <glyph glyph-name="Wgrave" unicode="&#x1e80;" horiz-adv-x="1105" 
d="M976 705h100l-248 -705h-85l-190 546l-192 -546h-85l-247 705h104l189 -559l195 559l76 -1l191 -561zM519 765l-138 153h103l101 -153h-66z" />
    <glyph glyph-name="X" unicode="X" horiz-adv-x="654" 
d="M386 359l268 -359h-121l-206 283l-206 -283h-121l269 360l-258 345h121l196 -269l195 269h120z" />
    <glyph glyph-name="Y" unicode="Y" horiz-adv-x="611" 
d="M638 705l-281 -376v-329h-103v329l-281 376h118l215 -291l215 291h117z" />
    <glyph glyph-name="Yacute" unicode="&#xdd;" horiz-adv-x="611" 
d="M638 705l-281 -376v-329h-103v329l-281 376h118l215 -291l215 291h117zM338 765h-66l101 153h103z" />
    <glyph glyph-name="Ycircumflex" unicode="&#x176;" horiz-adv-x="611" 
d="M638 705l-281 -376v-329h-103v329l-281 376h118l215 -291l215 291h117zM235 765h-84l122 153h64l122 -153h-84l-70 98z" />
    <glyph glyph-name="Ydieresis" unicode="&#x178;" horiz-adv-x="611" 
d="M638 705l-281 -376v-329h-103v329l-281 376h118l215 -291l215 291h117zM165 892h103v-99h-103v99zM342 892h103v-99h-103v99z" />
    <glyph glyph-name="uni1E8E" unicode="&#x1e8e;" horiz-adv-x="611" 
d="M638 705l-281 -376v-329h-103v329l-281 376h118l215 -291l215 291h117zM247 895h116v-106h-116v106z" />
    <glyph glyph-name="uni1EF4" unicode="&#x1ef4;" horiz-adv-x="611" 
d="M638 705l-281 -376v-329h-103v329l-281 376h118l215 -291l215 291h117zM252 -86h106v-101h-106v101z" />
    <glyph glyph-name="Ygrave" unicode="&#x1ef2;" horiz-adv-x="611" 
d="M638 705l-281 -376v-329h-103v329l-281 376h118l215 -291l215 291h117zM272 765l-138 153h103l101 -153h-66z" />
    <glyph glyph-name="uni1EF6" unicode="&#x1ef6;" horiz-adv-x="611" 
d="M638 705l-281 -376v-329h-103v329l-281 376h118l215 -291l215 291h117zM335 765h-59v19q0 17 11 27.5t30 19.5q14 7 19.5 11t5.5 11q0 8 -10 13t-28 5q-28 0 -60 -12l-16 46q43 17 85 17q46 0 73.5 -18t27.5 -46q0 -19 -12 -30t-34 -21q-18 -10 -25.5 -15.5t-7.5 -15.5
v-11z" />
    <glyph glyph-name="uni0232" unicode="&#x232;" horiz-adv-x="611" 
d="M638 705l-281 -376v-329h-103v329l-281 376h118l215 -291l215 291h117zM153 807v70h304v-70h-304z" />
    <glyph glyph-name="uni1EF8" unicode="&#x1ef8;" horiz-adv-x="611" 
d="M638 705l-281 -376v-329h-103v329l-281 376h118l215 -291l215 291h117zM166 873.5q26 32.5 69 32.5q20 0 37.5 -8t44.5 -24q23 -13 34.5 -18.5t22.5 -5.5q20 0 32 15t13 38h51q0 -59 -26 -91.5t-69 -32.5q-20 0 -37.5 8t-44.5 24q-23 13 -34.5 18.5t-22.5 5.5
q-20 0 -32 -15t-13 -38h-51q0 59 26 91.5z" />
    <glyph glyph-name="Z" unicode="Z" horiz-adv-x="595" 
d="M163 84h396v-84h-513v76l385 545h-385v84h503v-75z" />
    <glyph glyph-name="Zacute" unicode="&#x179;" horiz-adv-x="595" 
d="M163 84h396v-84h-513v76l385 545h-385v84h503v-75zM331 765h-66l101 153h103z" />
    <glyph glyph-name="Zcaron" unicode="&#x17d;" horiz-adv-x="595" 
d="M163 84h396v-84h-513v76l385 545h-385v84h503v-75zM368 918h84l-122 -153h-64l-122 153h84l70 -98z" />
    <glyph glyph-name="Zdotaccent" unicode="&#x17b;" horiz-adv-x="595" 
d="M163 84h396v-84h-513v76l385 545h-385v84h503v-75zM240 895h116v-106h-116v106z" />
    <glyph glyph-name="uni1E92" unicode="&#x1e92;" horiz-adv-x="595" 
d="M163 84h396v-84h-513v76l385 545h-385v84h503v-75zM247 -86h106v-101h-106v101z" />
    <glyph glyph-name="Iacute_J.loclNLD" horiz-adv-x="608" 
d="M82 0v705h103v-705h-103zM166 765h-66l101 153h103zM260 77l64 4q48 4 73 32.5t25 79.5v512h104v-513q0 -90 -47.5 -140t-138.5 -55l-73 -5zM507 765h-66l101 153h103z" />
    <glyph glyph-name="a" unicode="a" horiz-adv-x="535" 
d="M419.5 451q47.5 -49 47.5 -149v-302h-97v81q-19 -43 -56.5 -65.5t-87.5 -22.5q-48 0 -88 19.5t-62.5 54.5t-22.5 78q0 53 27.5 83.5t91 43.5t174.5 13h23v29q0 56 -23.5 81t-76.5 25q-83 0 -166 -51l-30 71q39 27 94.5 43.5t106.5 16.5q98 0 145.5 -49zM334 105.5
q35 37.5 35 96.5v26h-18q-78 0 -120 -7t-60 -23.5t-18 -47.5q0 -35 25.5 -58.5t65.5 -23.5q55 0 90 37.5z" />
    <glyph glyph-name="aacute" unicode="&#xe1;" horiz-adv-x="535" 
d="M419.5 451q47.5 -49 47.5 -149v-302h-97v81q-19 -43 -56.5 -65.5t-87.5 -22.5q-48 0 -88 19.5t-62.5 54.5t-22.5 78q0 53 27.5 83.5t91 43.5t174.5 13h23v29q0 56 -23.5 81t-76.5 25q-83 0 -166 -51l-30 71q39 27 94.5 43.5t106.5 16.5q98 0 145.5 -49zM334 105.5
q35 37.5 35 96.5v26h-18q-78 0 -120 -7t-60 -23.5t-18 -47.5q0 -35 25.5 -58.5t65.5 -23.5q55 0 90 37.5zM308 552h-66l99 203h108z" />
    <glyph glyph-name="abreve" unicode="&#x103;" horiz-adv-x="535" 
d="M419.5 451q47.5 -49 47.5 -149v-302h-97v81q-19 -43 -56.5 -65.5t-87.5 -22.5q-48 0 -88 19.5t-62.5 54.5t-22.5 78q0 53 27.5 83.5t91 43.5t174.5 13h23v29q0 56 -23.5 81t-76.5 25q-83 0 -166 -51l-30 71q39 27 94.5 43.5t106.5 16.5q98 0 145.5 -49zM334 105.5
q35 37.5 35 96.5v26h-18q-78 0 -120 -7t-60 -23.5t-18 -47.5q0 -35 25.5 -58.5t65.5 -23.5q55 0 90 37.5zM170 613q-46 33 -66 99l57 24q22 -46 50 -66t64 -20t64 20t50 66l57 -24q-19 -66 -65.5 -99t-105.5 -33t-105 33z" />
    <glyph glyph-name="uni1EAF" unicode="&#x1eaf;" horiz-adv-x="535" 
d="M419.5 451q47.5 -49 47.5 -149v-302h-97v81q-19 -43 -56.5 -65.5t-87.5 -22.5q-48 0 -88 19.5t-62.5 54.5t-22.5 78q0 53 27.5 83.5t91 43.5t174.5 13h23v29q0 56 -23.5 81t-76.5 25q-83 0 -166 -51l-30 71q39 27 94.5 43.5t106.5 16.5q98 0 145.5 -49zM334 105.5
q35 37.5 35 96.5v26h-18q-78 0 -120 -7t-60 -23.5t-18 -47.5q0 -35 25.5 -58.5t65.5 -23.5q55 0 90 37.5zM307 656h-64l100 142h98zM172.5 573q-43.5 26 -64.5 81l49 21q38 -67 118 -67t118 67l49 -21q-22 -55 -65.5 -81t-101.5 -26q-59 0 -102.5 26z" />
    <glyph glyph-name="uni1EB7" unicode="&#x1eb7;" horiz-adv-x="535" 
d="M419.5 451q47.5 -49 47.5 -149v-302h-97v81q-19 -43 -56.5 -65.5t-87.5 -22.5q-48 0 -88 19.5t-62.5 54.5t-22.5 78q0 53 27.5 83.5t91 43.5t174.5 13h23v29q0 56 -23.5 81t-76.5 25q-83 0 -166 -51l-30 71q39 27 94.5 43.5t106.5 16.5q98 0 145.5 -49zM334 105.5
q35 37.5 35 96.5v26h-18q-78 0 -120 -7t-60 -23.5t-18 -47.5q0 -35 25.5 -58.5t65.5 -23.5q55 0 90 37.5zM219 -86h106v-101h-106v101zM170 613q-46 33 -66 99l57 24q22 -46 50 -66t64 -20t64 20t50 66l57 -24q-19 -66 -65.5 -99t-105.5 -33t-105 33z" />
    <glyph glyph-name="uni1EB1" unicode="&#x1eb1;" horiz-adv-x="535" 
d="M419.5 451q47.5 -49 47.5 -149v-302h-97v81q-19 -43 -56.5 -65.5t-87.5 -22.5q-48 0 -88 19.5t-62.5 54.5t-22.5 78q0 53 27.5 83.5t91 43.5t174.5 13h23v29q0 56 -23.5 81t-76.5 25q-83 0 -166 -51l-30 71q39 27 94.5 43.5t106.5 16.5q98 0 145.5 -49zM334 105.5
q35 37.5 35 96.5v26h-18q-78 0 -120 -7t-60 -23.5t-18 -47.5q0 -35 25.5 -58.5t65.5 -23.5q55 0 90 37.5zM243 656l-134 142h98l100 -142h-64zM173.5 573q-43.5 26 -65.5 81l49 21q38 -67 118 -67t118 67l49 -21q-21 -55 -64.5 -81t-102.5 -26q-58 0 -101.5 26z" />
    <glyph glyph-name="uni1EB3" unicode="&#x1eb3;" horiz-adv-x="535" 
d="M419.5 451q47.5 -49 47.5 -149v-302h-97v81q-19 -43 -56.5 -65.5t-87.5 -22.5q-48 0 -88 19.5t-62.5 54.5t-22.5 78q0 53 27.5 83.5t91 43.5t174.5 13h23v29q0 56 -23.5 81t-76.5 25q-83 0 -166 -51l-30 71q39 27 94.5 43.5t106.5 16.5q98 0 145.5 -49zM334 105.5
q35 37.5 35 96.5v26h-18q-78 0 -120 -7t-60 -23.5t-18 -47.5q0 -35 25.5 -58.5t65.5 -23.5q55 0 90 37.5zM305 657h-59v17q0 18 11.5 27t31.5 18q23 9 23 17t-10 12.5t-28 4.5q-28 0 -60 -12l-16 45q43 17 85 17q47 0 74 -17t27 -45q0 -19 -12 -28.5t-34 -18.5
q-16 -7 -24.5 -13t-8.5 -16v-8zM173.5 573q-43.5 26 -65.5 81l49 21q38 -67 118 -67t118 67l49 -21q-21 -55 -64.5 -81t-102.5 -26q-58 0 -101.5 26z" />
    <glyph glyph-name="uni1EB5" unicode="&#x1eb5;" horiz-adv-x="535" 
d="M419.5 451q47.5 -49 47.5 -149v-302h-97v81q-19 -43 -56.5 -65.5t-87.5 -22.5q-48 0 -88 19.5t-62.5 54.5t-22.5 78q0 53 27.5 83.5t91 43.5t174.5 13h23v29q0 56 -23.5 81t-76.5 25q-83 0 -166 -51l-30 71q39 27 94.5 43.5t106.5 16.5q98 0 145.5 -49zM334 105.5
q35 37.5 35 96.5v26h-18q-78 0 -120 -7t-60 -23.5t-18 -47.5q0 -35 25.5 -58.5t65.5 -23.5q55 0 90 37.5zM137 776q27 29 68 29q20 0 38.5 -7t43.5 -20q15 -8 30.5 -14t26.5 -6q20 0 32 12.5t13 31.5h51q0 -46 -27 -75t-68 -29q-20 0 -38.5 7t-43.5 20q-15 8 -30.5 14
t-26.5 6q-20 0 -32 -12.5t-13 -31.5h-51q0 46 27 75zM173.5 573q-43.5 26 -65.5 81l49 21q38 -67 118 -67t118 67l49 -21q-21 -55 -64.5 -81t-102.5 -26q-58 0 -101.5 26z" />
    <glyph glyph-name="uni01CE" unicode="&#x1ce;" horiz-adv-x="535" 
d="M419.5 451q47.5 -49 47.5 -149v-302h-97v81q-19 -43 -56.5 -65.5t-87.5 -22.5q-48 0 -88 19.5t-62.5 54.5t-22.5 78q0 53 27.5 83.5t91 43.5t174.5 13h23v29q0 56 -23.5 81t-76.5 25q-83 0 -166 -51l-30 71q39 27 94.5 43.5t106.5 16.5q98 0 145.5 -49zM334 105.5
q35 37.5 35 96.5v26h-18q-78 0 -120 -7t-60 -23.5t-18 -47.5q0 -35 25.5 -58.5t65.5 -23.5q55 0 90 37.5zM343 755h86l-121 -203h-66l-121 203h86l68 -135z" />
    <glyph glyph-name="acircumflex" unicode="&#xe2;" horiz-adv-x="535" 
d="M419.5 451q47.5 -49 47.5 -149v-302h-97v81q-19 -43 -56.5 -65.5t-87.5 -22.5q-48 0 -88 19.5t-62.5 54.5t-22.5 78q0 53 27.5 83.5t91 43.5t174.5 13h23v29q0 56 -23.5 81t-76.5 25q-83 0 -166 -51l-30 71q39 27 94.5 43.5t106.5 16.5q98 0 145.5 -49zM334 105.5
q35 37.5 35 96.5v26h-18q-78 0 -120 -7t-60 -23.5t-18 -47.5q0 -35 25.5 -58.5t65.5 -23.5q55 0 90 37.5zM207 552h-86l121 203h66l121 -203h-86l-68 135z" />
    <glyph glyph-name="uni1EA5" unicode="&#x1ea5;" horiz-adv-x="535" 
d="M419.5 451q47.5 -49 47.5 -149v-302h-97v81q-19 -43 -56.5 -65.5t-87.5 -22.5q-48 0 -88 19.5t-62.5 54.5t-22.5 78q0 53 27.5 83.5t91 43.5t174.5 13h23v29q0 56 -23.5 81t-76.5 25q-83 0 -166 -51l-30 71q39 27 94.5 43.5t106.5 16.5q98 0 145.5 -49zM334 105.5
q35 37.5 35 96.5v26h-18q-78 0 -120 -7t-60 -23.5t-18 -47.5q0 -35 25.5 -58.5t65.5 -23.5q55 0 90 37.5zM419 656h-57l86 142h96zM204 552h-83l122 145h64l122 -145h-83l-71 91z" />
    <glyph glyph-name="uni1EAD" unicode="&#x1ead;" horiz-adv-x="535" 
d="M419.5 451q47.5 -49 47.5 -149v-302h-97v81q-19 -43 -56.5 -65.5t-87.5 -22.5q-48 0 -88 19.5t-62.5 54.5t-22.5 78q0 53 27.5 83.5t91 43.5t174.5 13h23v29q0 56 -23.5 81t-76.5 25q-83 0 -166 -51l-30 71q39 27 94.5 43.5t106.5 16.5q98 0 145.5 -49zM334 105.5
q35 37.5 35 96.5v26h-18q-78 0 -120 -7t-60 -23.5t-18 -47.5q0 -35 25.5 -58.5t65.5 -23.5q55 0 90 37.5zM219 -86h106v-101h-106v101zM207 552h-86l121 203h66l121 -203h-86l-68 135z" />
    <glyph glyph-name="uni1EA7" unicode="&#x1ea7;" horiz-adv-x="535" 
d="M419.5 451q47.5 -49 47.5 -149v-302h-97v81q-19 -43 -56.5 -65.5t-87.5 -22.5q-48 0 -88 19.5t-62.5 54.5t-22.5 78q0 53 27.5 83.5t91 43.5t174.5 13h23v29q0 56 -23.5 81t-76.5 25q-83 0 -166 -51l-30 71q39 27 94.5 43.5t106.5 16.5q98 0 145.5 -49zM334 105.5
q35 37.5 35 96.5v26h-18q-78 0 -120 -7t-60 -23.5t-18 -47.5q0 -35 25.5 -58.5t65.5 -23.5q55 0 90 37.5zM405 656l-115 142h96l75 -142h-56zM204 552h-83l122 145h64l122 -145h-83l-71 91z" />
    <glyph glyph-name="uni1EA9" unicode="&#x1ea9;" horiz-adv-x="535" 
d="M419.5 451q47.5 -49 47.5 -149v-302h-97v81q-19 -43 -56.5 -65.5t-87.5 -22.5q-48 0 -88 19.5t-62.5 54.5t-22.5 78q0 53 27.5 83.5t91 43.5t174.5 13h23v29q0 56 -23.5 81t-76.5 25q-83 0 -166 -51l-30 71q39 27 94.5 43.5t106.5 16.5q98 0 145.5 -49zM334 105.5
q35 37.5 35 96.5v26h-18q-78 0 -120 -7t-60 -23.5t-18 -47.5q0 -35 25.5 -58.5t65.5 -23.5q55 0 90 37.5zM421 657h-60v17q0 18 11.5 27t32.5 18q23 9 23 17t-10 12.5t-28 4.5q-29 0 -60 -12l-16 45q43 17 85 17q47 0 74 -17t27 -45q0 -19 -12 -28.5t-34 -18.5
q-16 -7 -24.5 -13t-8.5 -16v-8zM204 552h-83l122 145h64l122 -145h-83l-71 91z" />
    <glyph glyph-name="uni1EAB" unicode="&#x1eab;" horiz-adv-x="535" 
d="M419.5 451q47.5 -49 47.5 -149v-302h-97v81q-19 -43 -56.5 -65.5t-87.5 -22.5q-48 0 -88 19.5t-62.5 54.5t-22.5 78q0 53 27.5 83.5t91 43.5t174.5 13h23v29q0 56 -23.5 81t-76.5 25q-83 0 -166 -51l-30 71q39 27 94.5 43.5t106.5 16.5q98 0 145.5 -49zM334 105.5
q35 37.5 35 96.5v26h-18q-78 0 -120 -7t-60 -23.5t-18 -47.5q0 -35 25.5 -58.5t65.5 -23.5q55 0 90 37.5zM137 784.5q27 28.5 68 28.5q20 0 38 -6t44 -17q15 -7 30.5 -12t26.5 -5q20 0 32 11.5t13 28.5h51q0 -43 -27 -71.5t-68 -28.5q-20 0 -38 6t-44 17q-15 7 -30.5 12
t-26.5 5q-20 0 -32 -11.5t-13 -28.5h-51q0 43 27 71.5zM204 552h-83l122 145h64l122 -145h-83l-71 91z" />
    <glyph glyph-name="uni0201" unicode="&#x201;" horiz-adv-x="535" 
d="M419.5 451q47.5 -49 47.5 -149v-302h-97v81q-19 -43 -56.5 -65.5t-87.5 -22.5q-48 0 -88 19.5t-62.5 54.5t-22.5 78q0 53 27.5 83.5t91 43.5t174.5 13h23v29q0 56 -23.5 81t-76.5 25q-83 0 -166 -51l-30 71q39 27 94.5 43.5t106.5 16.5q98 0 145.5 -49zM334 105.5
q35 37.5 35 96.5v26h-18q-78 0 -120 -7t-60 -23.5t-18 -47.5q0 -35 25.5 -58.5t65.5 -23.5q55 0 90 37.5zM188 552l-78 203h84l42 -203h-48zM314 552l-78 203h84l42 -203h-48z" />
    <glyph glyph-name="adieresis" unicode="&#xe4;" horiz-adv-x="535" 
d="M419.5 451q47.5 -49 47.5 -149v-302h-97v81q-19 -43 -56.5 -65.5t-87.5 -22.5q-48 0 -88 19.5t-62.5 54.5t-22.5 78q0 53 27.5 83.5t91 43.5t174.5 13h23v29q0 56 -23.5 81t-76.5 25q-83 0 -166 -51l-30 71q39 27 94.5 43.5t106.5 16.5q98 0 145.5 -49zM334 105.5
q35 37.5 35 96.5v26h-18q-78 0 -120 -7t-60 -23.5t-18 -47.5q0 -35 25.5 -58.5t65.5 -23.5q55 0 90 37.5zM135 703h103v-99h-103v99zM312 703h103v-99h-103v99z" />
    <glyph glyph-name="uni0227" unicode="&#x227;" horiz-adv-x="535" 
d="M419.5 451q47.5 -49 47.5 -149v-302h-97v81q-19 -43 -56.5 -65.5t-87.5 -22.5q-48 0 -88 19.5t-62.5 54.5t-22.5 78q0 53 27.5 83.5t91 43.5t174.5 13h23v29q0 56 -23.5 81t-76.5 25q-83 0 -166 -51l-30 71q39 27 94.5 43.5t106.5 16.5q98 0 145.5 -49zM334 105.5
q35 37.5 35 96.5v26h-18q-78 0 -120 -7t-60 -23.5t-18 -47.5q0 -35 25.5 -58.5t65.5 -23.5q55 0 90 37.5zM217 706h116v-105h-116v105z" />
    <glyph glyph-name="uni1EA1" unicode="&#x1ea1;" horiz-adv-x="535" 
d="M419.5 451q47.5 -49 47.5 -149v-302h-97v81q-19 -43 -56.5 -65.5t-87.5 -22.5q-48 0 -88 19.5t-62.5 54.5t-22.5 78q0 53 27.5 83.5t91 43.5t174.5 13h23v29q0 56 -23.5 81t-76.5 25q-83 0 -166 -51l-30 71q39 27 94.5 43.5t106.5 16.5q98 0 145.5 -49zM334 105.5
q35 37.5 35 96.5v26h-18q-78 0 -120 -7t-60 -23.5t-18 -47.5q0 -35 25.5 -58.5t65.5 -23.5q55 0 90 37.5zM219 -86h106v-101h-106v101z" />
    <glyph glyph-name="agrave" unicode="&#xe0;" horiz-adv-x="535" 
d="M419.5 451q47.5 -49 47.5 -149v-302h-97v81q-19 -43 -56.5 -65.5t-87.5 -22.5q-48 0 -88 19.5t-62.5 54.5t-22.5 78q0 53 27.5 83.5t91 43.5t174.5 13h23v29q0 56 -23.5 81t-76.5 25q-83 0 -166 -51l-30 71q39 27 94.5 43.5t106.5 16.5q98 0 145.5 -49zM334 105.5
q35 37.5 35 96.5v26h-18q-78 0 -120 -7t-60 -23.5t-18 -47.5q0 -35 25.5 -58.5t65.5 -23.5q55 0 90 37.5zM242 552l-141 203h108l99 -203h-66z" />
    <glyph glyph-name="uni1EA3" unicode="&#x1ea3;" horiz-adv-x="535" 
d="M419.5 451q47.5 -49 47.5 -149v-302h-97v81q-19 -43 -56.5 -65.5t-87.5 -22.5q-48 0 -88 19.5t-62.5 54.5t-22.5 78q0 53 27.5 83.5t91 43.5t174.5 13h23v29q0 56 -23.5 81t-76.5 25q-83 0 -166 -51l-30 71q39 27 94.5 43.5t106.5 16.5q98 0 145.5 -49zM334 105.5
q35 37.5 35 96.5v26h-18q-78 0 -120 -7t-60 -23.5t-18 -47.5q0 -35 25.5 -58.5t65.5 -23.5q55 0 90 37.5zM306 552h-59v27q0 21 10 35.5t28 30.5q13 12 18.5 19t5.5 16q0 11 -10 17.5t-28 6.5q-26 0 -56 -11l-17 48q40 17 82 17q49 0 76.5 -20t27.5 -50q0 -23 -11 -37.5
t-32 -30.5q-18 -14 -26.5 -24.5t-8.5 -25.5v-18z" />
    <glyph glyph-name="uni0203" unicode="&#x203;" horiz-adv-x="535" 
d="M419.5 451q47.5 -49 47.5 -149v-302h-97v81q-19 -43 -56.5 -65.5t-87.5 -22.5q-48 0 -88 19.5t-62.5 54.5t-22.5 78q0 53 27.5 83.5t91 43.5t174.5 13h23v29q0 56 -23.5 81t-76.5 25q-83 0 -166 -51l-30 71q39 27 94.5 43.5t106.5 16.5q98 0 145.5 -49zM334 105.5
q35 37.5 35 96.5v26h-18q-78 0 -120 -7t-60 -23.5t-18 -47.5q0 -35 25.5 -58.5t65.5 -23.5q55 0 90 37.5zM379.5 700.5q46.5 -32.5 66.5 -98.5l-57 -24q-41 86 -114 86t-114 -86l-57 23q19 66 65.5 99t105.5 33q58 0 104.5 -32.5z" />
    <glyph glyph-name="amacron" unicode="&#x101;" horiz-adv-x="535" 
d="M419.5 451q47.5 -49 47.5 -149v-302h-97v81q-19 -43 -56.5 -65.5t-87.5 -22.5q-48 0 -88 19.5t-62.5 54.5t-22.5 78q0 53 27.5 83.5t91 43.5t174.5 13h23v29q0 56 -23.5 81t-76.5 25q-83 0 -166 -51l-30 71q39 27 94.5 43.5t106.5 16.5q98 0 145.5 -49zM334 105.5
q35 37.5 35 96.5v26h-18q-78 0 -120 -7t-60 -23.5t-18 -47.5q0 -35 25.5 -58.5t65.5 -23.5q55 0 90 37.5zM123 618v70h304v-70h-304z" />
    <glyph glyph-name="aogonek" unicode="&#x105;" horiz-adv-x="535" 
d="M509 -172q-39 -22 -90 -22q-53 0 -86.5 30t-33.5 77q0 35 18.5 63t52.5 46v59q-19 -42 -56 -65t-87 -23q-49 0 -88.5 19.5t-62.5 54.5t-23 78q0 53 28 83t91 43.5t174 13.5h23v29q0 56 -23.5 81t-76.5 25q-83 0 -166 -51l-30 71q39 27 94.5 43.5t106.5 16.5
q98 0 145.5 -49t47.5 -149v-302h-7q-38 0 -63 -20.5t-25 -53.5q0 -28 17 -44t47 -16q23 0 57 16zM334 105.5q35 37.5 35 96.5v26h-18q-78 0 -120 -7t-60 -23.5t-18 -47.5q0 -36 26 -59t65 -23q55 0 90 37.5z" />
    <glyph glyph-name="aring" unicode="&#xe5;" horiz-adv-x="535" 
d="M419.5 451q47.5 -49 47.5 -149v-302h-97v81q-19 -43 -56.5 -65.5t-87.5 -22.5q-48 0 -88 19.5t-62.5 54.5t-22.5 78q0 53 27.5 83.5t91 43.5t174.5 13h23v29q0 56 -23.5 81t-76.5 25q-83 0 -166 -51l-30 71q39 27 94.5 43.5t106.5 16.5q98 0 145.5 -49zM334 105.5
q35 37.5 35 96.5v26h-18q-78 0 -120 -7t-60 -23.5t-18 -47.5q0 -35 25.5 -58.5t65.5 -23.5q55 0 90 37.5zM201.5 581.5q-30.5 29.5 -30.5 72.5q0 42 30.5 71.5t73.5 29.5t73.5 -29.5t30.5 -71.5q0 -43 -30.5 -72.5t-73.5 -29.5t-73.5 29.5zM308.5 619.5q13.5 14.5 13.5 34.5
t-13.5 34t-33.5 14t-33.5 -14t-13.5 -34t13.5 -34.5t33.5 -14.5t33.5 14.5z" />
    <glyph glyph-name="aringacute" unicode="&#x1fb;" horiz-adv-x="535" 
d="M202 582q-30 29 -30 72t30 72.5t73 29.5q26 0 50 -13l73 108h103l-135 -147q13 -24 13 -50q0 -42 -30.5 -71.5t-73.5 -29.5t-73 29zM241.5 688.5q-13.5 -14.5 -13.5 -34.5t13.5 -34.5t33.5 -14.5t33.5 14.5t13.5 34.5t-13.5 34.5t-33.5 14.5t-33.5 -14.5zM419.5 451
q47.5 -49 47.5 -149v-302h-97v81q-19 -43 -56.5 -65.5t-87.5 -22.5q-48 0 -88 19.5t-62.5 54.5t-22.5 78q0 53 27.5 83.5t91 43.5t174.5 13h23v29q0 56 -23.5 81t-76.5 25q-83 0 -166 -51l-30 71q39 27 94.5 43.5t106.5 16.5q98 0 145.5 -49zM334 105.5q35 37.5 35 96.5v26
h-18q-78 0 -120 -7t-60 -23.5t-18 -47.5q0 -35 25.5 -58.5t65.5 -23.5q55 0 90 37.5z" />
    <glyph glyph-name="atilde" unicode="&#xe3;" horiz-adv-x="535" 
d="M419.5 451q47.5 -49 47.5 -149v-302h-97v81q-19 -43 -56.5 -65.5t-87.5 -22.5q-48 0 -88 19.5t-62.5 54.5t-22.5 78q0 53 27.5 83.5t91 43.5t174.5 13h23v29q0 56 -23.5 81t-76.5 25q-83 0 -166 -51l-30 71q39 27 94.5 43.5t106.5 16.5q98 0 145.5 -49zM334 105.5
q35 37.5 35 96.5v26h-18q-78 0 -120 -7t-60 -23.5t-18 -47.5q0 -35 25.5 -58.5t65.5 -23.5q55 0 90 37.5zM136 686q26 32 69 32q20 0 37.5 -8t44.5 -24q23 -13 34.5 -18.5t22.5 -5.5q20 0 32 15t13 38h51q0 -59 -26 -91t-69 -32q-20 0 -38.5 8t-43.5 23q-19 12 -32 18t-25 6
q-20 0 -32 -14.5t-13 -37.5h-51q0 59 26 91z" />
    <glyph glyph-name="ae" unicode="&#xe6;" horiz-adv-x="848" 
d="M808 227h-339q10 -155 147 -155q81 0 153 55l31 -71q-33 -29 -83.5 -46t-100.5 -17q-72 0 -124 29.5t-80 85.5q-20 -55 -65.5 -85t-109.5 -30q-52 0 -94 19.5t-66 54t-24 78.5q0 53 28 83.5t91.5 43.5t174.5 13h24v27q0 57 -23.5 82.5t-75.5 25.5q-82 0 -169 -51l-30 71
q38 26 94 43t107 17q120 0 162 -79q30 38 73 58.5t95 20.5q94 0 149 -65.5t55 -176.5v-31zM510.5 389q-34.5 -37 -41.5 -104h251q-2 68 -32.5 104.5t-85.5 36.5q-57 0 -91.5 -37zM336.5 107q34.5 39 34.5 98v23h-19q-78 0 -120.5 -7t-60.5 -23.5t-18 -47.5q0 -37 27 -59.5
t69 -22.5q53 0 87.5 39z" />
    <glyph glyph-name="aeacute" unicode="&#x1fd;" horiz-adv-x="848" 
d="M808 227h-339q10 -155 147 -155q81 0 153 55l31 -71q-33 -29 -83.5 -46t-100.5 -17q-72 0 -124 29.5t-80 85.5q-20 -55 -65.5 -85t-109.5 -30q-52 0 -94 19.5t-66 54t-24 78.5q0 53 28 83.5t91.5 43.5t174.5 13h24v27q0 57 -23.5 82.5t-75.5 25.5q-82 0 -169 -51l-30 71
q38 26 94 43t107 17q120 0 162 -79q30 38 73 58.5t95 20.5q94 0 149 -65.5t55 -176.5v-31zM510.5 389q-34.5 -37 -41.5 -104h251q-2 68 -32.5 104.5t-85.5 36.5q-57 0 -91.5 -37zM336.5 107q34.5 39 34.5 98v23h-19q-78 0 -120.5 -7t-60.5 -23.5t-18 -47.5q0 -37 27 -59.5
t69 -22.5q53 0 87.5 39zM453 552h-66l99 203h108z" />
    <glyph glyph-name="b" unicode="b" horiz-adv-x="591" 
d="M445 469q49 -31 76.5 -88t27.5 -133q0 -75 -27.5 -133t-77 -90t-112.5 -32q-55 0 -97 23.5t-64 67.5v-84h-101v705h101v-297q22 44 64 68t97 24q64 0 113 -31zM409.5 119q36.5 46 36.5 129q0 82 -36 126.5t-102 44.5t-101.5 -45t-35.5 -128t35.5 -128t101.5 -45
q65 0 101.5 46z" />
    <glyph glyph-name="c" unicode="c" horiz-adv-x="483" 
d="M155.5 24q-54.5 31 -84 87.5t-29.5 132.5t30.5 134t86 90t129.5 32q51 0 98.5 -17t77.5 -46l-31 -72q-66 54 -137 54q-70 0 -109.5 -45.5t-39.5 -128.5q0 -82 39 -126.5t110 -44.5t137 54l31 -73q-32 -29 -80 -45.5t-100 -16.5q-74 0 -128.5 31z" />
    <glyph glyph-name="cacute" unicode="&#x107;" horiz-adv-x="483" 
d="M155.5 24q-54.5 31 -84 87.5t-29.5 132.5t30.5 134t86 90t129.5 32q51 0 98.5 -17t77.5 -46l-31 -72q-66 54 -137 54q-70 0 -109.5 -45.5t-39.5 -128.5q0 -82 39 -126.5t110 -44.5t137 54l31 -73q-32 -29 -80 -45.5t-100 -16.5q-74 0 -128.5 31zM317 552h-66l99 203h108z
" />
    <glyph glyph-name="ccaron" unicode="&#x10d;" horiz-adv-x="483" 
d="M155.5 24q-54.5 31 -84 87.5t-29.5 132.5t30.5 134t86 90t129.5 32q51 0 98.5 -17t77.5 -46l-31 -72q-66 54 -137 54q-70 0 -109.5 -45.5t-39.5 -128.5q0 -82 39 -126.5t110 -44.5t137 54l31 -73q-32 -29 -80 -45.5t-100 -16.5q-74 0 -128.5 31zM352 755h86l-121 -203
h-66l-121 203h86l68 -135z" />
    <glyph glyph-name="ccedilla" unicode="&#xe7;" horiz-adv-x="483" 
d="M391.5 12.5q-43.5 -16.5 -90.5 -19.5l-5 -36q14 2 21 2q34 0 56 -17.5t22 -51.5q0 -37 -32 -60.5t-89 -23.5q-21 0 -46 5t-44 14l13 47q37 -14 76 -14q25 0 39 8t14 24q0 25 -35 25q-18 0 -42 -8l-20 17l8 72q-91 14 -143 80.5t-52 167.5q0 76 30.5 134t86 90t129.5 32
q51 0 98.5 -17t77.5 -46l-31 -72q-66 54 -137 54q-70 0 -109.5 -45.5t-39.5 -128.5q0 -82 39 -126.5t110 -44.5t137 54l31 -73q-29 -26 -72.5 -42.5z" />
    <glyph glyph-name="uni1E09" unicode="&#x1e09;" horiz-adv-x="483" 
d="M458 755l-141 -203h-66l99 203h108zM391.5 12.5q-43.5 -16.5 -90.5 -19.5l-5 -36q14 2 21 2q34 0 56 -17.5t22 -51.5q0 -37 -32 -60.5t-89 -23.5q-21 0 -46 5t-44 14l13 47q37 -14 76 -14q25 0 39 8t14 24q0 25 -35 25q-18 0 -42 -8l-20 17l8 72q-91 14 -143 80.5
t-52 167.5q0 76 30.5 134t86 90t129.5 32q51 0 98.5 -17t77.5 -46l-31 -72q-66 54 -137 54q-70 0 -109.5 -45.5t-39.5 -128.5q0 -82 39 -126.5t110 -44.5t137 54l31 -73q-29 -26 -72.5 -42.5z" />
    <glyph glyph-name="ccircumflex" unicode="&#x109;" horiz-adv-x="483" 
d="M155.5 24q-54.5 31 -84 87.5t-29.5 132.5t30.5 134t86 90t129.5 32q51 0 98.5 -17t77.5 -46l-31 -72q-66 54 -137 54q-70 0 -109.5 -45.5t-39.5 -128.5q0 -82 39 -126.5t110 -44.5t137 54l31 -73q-32 -29 -80 -45.5t-100 -16.5q-74 0 -128.5 31zM216 552h-86l121 203h66
l121 -203h-86l-68 135z" />
    <glyph glyph-name="cdotaccent" unicode="&#x10b;" horiz-adv-x="483" 
d="M155.5 24q-54.5 31 -84 87.5t-29.5 132.5t30.5 134t86 90t129.5 32q51 0 98.5 -17t77.5 -46l-31 -72q-66 54 -137 54q-70 0 -109.5 -45.5t-39.5 -128.5q0 -82 39 -126.5t110 -44.5t137 54l31 -73q-32 -29 -80 -45.5t-100 -16.5q-74 0 -128.5 31zM226 706h116v-105h-116
v105z" />
    <glyph glyph-name="d" unicode="d" horiz-adv-x="591" 
d="M520 705v-705h-100v84q-22 -44 -64 -67.5t-97 -23.5q-63 0 -112.5 32t-77 90t-27.5 133q0 76 27.5 133t76.5 88t113 31q55 0 96.5 -23.5t63.5 -66.5v295h101zM384.5 118q35.5 45 35.5 128t-35.5 128t-101.5 45t-102.5 -44.5t-36.5 -126.5t37 -128.5t102 -46.5
q66 0 101.5 45z" />
    <glyph glyph-name="eth" unicode="&#xf0;" horiz-adv-x="569" 
d="M502 443.5q25 -72.5 25 -153.5q0 -145 -63.5 -221t-184.5 -76q-70 0 -124 28.5t-83.5 81t-29.5 121.5q0 68 29 120.5t81.5 81.5t119.5 29q98 0 150 -61q-21 87 -82 148l-165 -54l-18 59l125 41q-56 37 -128 53l24 72q117 -25 201 -93l127 42l17 -59l-95 -31
q49 -56 74 -128.5zM383.5 113q36.5 40 36.5 111q0 73 -36 112.5t-102 39.5t-102 -39.5t-36 -112.5t35.5 -112t102.5 -39q65 0 101.5 40z" />
    <glyph glyph-name="dcaron" unicode="&#x10f;" horiz-adv-x="591" 
d="M419 705h101v-705h-100v84q-22 -44 -64 -67.5t-97 -23.5q-63 0 -112.5 32t-77 90t-27.5 133q0 76 27.5 133t76.5 88t113 31q55 0 96.5 -23.5t63.5 -66.5v295zM551 705h68l-26 -191h-42v191zM384.5 118q35.5 45 35.5 128t-35.5 128t-101.5 45t-102.5 -44.5t-36.5 -126.5
t37 -128.5t102 -46.5q66 0 101.5 45z" />
    <glyph glyph-name="dcroat" unicode="&#x111;" horiz-adv-x="591" 
d="M611 548h-91v-548h-100v84q-22 -44 -64 -67.5t-97 -23.5q-63 0 -112.5 32t-77 90t-27.5 133q0 76 27.5 133t76.5 88t113 31q55 0 96.5 -23.5t63.5 -66.5v138h-190v74h190v83h101v-83h91v-74zM384.5 118q35.5 45 35.5 128t-35.5 128t-101.5 45t-102.5 -44.5t-36.5 -126.5
t37 -128.5t102 -46.5q66 0 101.5 45z" />
    <glyph glyph-name="uni1E0D" unicode="&#x1e0d;" horiz-adv-x="591" 
d="M520 705v-705h-100v84q-22 -44 -64 -67.5t-97 -23.5q-63 0 -112.5 32t-77 90t-27.5 133q0 76 27.5 133t76.5 88t113 31q55 0 96.5 -23.5t63.5 -66.5v295h101zM384.5 118q35.5 45 35.5 128t-35.5 128t-101.5 45t-102.5 -44.5t-36.5 -126.5t37 -128.5t102 -46.5
q66 0 101.5 45zM244 -86h106v-101h-106v101z" />
    <glyph glyph-name="uni1E0F" unicode="&#x1e0f;" horiz-adv-x="591" 
d="M520 705v-705h-100v84q-22 -44 -64 -67.5t-97 -23.5q-63 0 -112.5 32t-77 90t-27.5 133q0 76 27.5 133t76.5 88t113 31q55 0 96.5 -23.5t63.5 -66.5v295h101zM384.5 118q35.5 45 35.5 128t-35.5 128t-101.5 45t-102.5 -44.5t-36.5 -126.5t37 -128.5t102 -46.5
q66 0 101.5 45zM145 -170v67h304v-67h-304z" />
    <glyph glyph-name="uni01C6" unicode="&#x1c6;" horiz-adv-x="1097" 
d="M520 705v-705h-100v84q-22 -44 -64 -67.5t-97 -23.5q-63 0 -112.5 32t-77 90t-27.5 133q0 76 27.5 133t76.5 88t113 31q55 0 96.5 -23.5t63.5 -66.5v295h101zM384.5 118q35.5 45 35.5 128t-35.5 128t-101.5 45t-102.5 -44.5t-36.5 -126.5t37 -128.5t102 -46.5
q66 0 101.5 45zM761 78h296v-78h-418v70l286 340h-278v78h400v-71zM917 755h86l-121 -203h-66l-121 203h86l68 -135z" />
    <glyph glyph-name="e" unicode="e" horiz-adv-x="529" 
d="M488 227h-345q11 -155 154 -155q84 0 152 55l31 -71q-34 -29 -84 -46t-102 -17q-117 0 -184.5 67t-67.5 185q0 75 29.5 133t83 90t121.5 32q99 0 155.5 -64t56.5 -177v-32zM185.5 389.5q-34.5 -36.5 -41.5 -104.5h257q-3 68 -34.5 104.5t-88.5 36.5q-58 0 -92.5 -36.5z
" />
    <glyph glyph-name="eacute" unicode="&#xe9;" horiz-adv-x="529" 
d="M488 227h-345q11 -155 154 -155q84 0 152 55l31 -71q-34 -29 -84 -46t-102 -17q-117 0 -184.5 67t-67.5 185q0 75 29.5 133t83 90t121.5 32q99 0 155.5 -64t56.5 -177v-32zM185.5 389.5q-34.5 -36.5 -41.5 -104.5h257q-3 68 -34.5 104.5t-88.5 36.5q-58 0 -92.5 -36.5z
M309 552h-66l99 203h108z" />
    <glyph glyph-name="ebreve" unicode="&#x115;" horiz-adv-x="529" 
d="M488 227h-345q11 -155 154 -155q84 0 152 55l31 -71q-34 -29 -84 -46t-102 -17q-117 0 -184.5 67t-67.5 185q0 75 29.5 133t83 90t121.5 32q99 0 155.5 -64t56.5 -177v-32zM185.5 389.5q-34.5 -36.5 -41.5 -104.5h257q-3 68 -34.5 104.5t-88.5 36.5q-58 0 -92.5 -36.5z
M171 613q-46 33 -66 99l57 24q22 -46 50 -66t64 -20t64 20t50 66l57 -24q-19 -66 -65.5 -99t-105.5 -33t-105 33z" />
    <glyph glyph-name="ecaron" unicode="&#x11b;" horiz-adv-x="529" 
d="M488 227h-345q11 -155 154 -155q84 0 152 55l31 -71q-34 -29 -84 -46t-102 -17q-117 0 -184.5 67t-67.5 185q0 75 29.5 133t83 90t121.5 32q99 0 155.5 -64t56.5 -177v-32zM185.5 389.5q-34.5 -36.5 -41.5 -104.5h257q-3 68 -34.5 104.5t-88.5 36.5q-58 0 -92.5 -36.5z
M344 755h86l-121 -203h-66l-121 203h86l68 -135z" />
    <glyph glyph-name="uni1E1D" unicode="&#x1e1d;" horiz-adv-x="529" 
d="M171 613q-46 33 -66 99l57 24q22 -46 50 -66t64 -20t64 20t50 66l57 -24q-19 -66 -65.5 -99t-105.5 -33t-105 33zM488 227h-345q11 -155 154 -155q84 0 152 55l31 -71q-31 -26 -75 -42.5t-91 -19.5l-5 -37q14 2 21 2q34 0 56 -17.5t22 -51.5q0 -37 -32 -60.5t-89 -23.5
q-21 0 -46 5t-44 14l13 47q37 -14 76 -14q25 0 39 8t14 24q0 25 -35 25q-18 0 -42 -8l-20 17l8 72q-98 12 -153 77.5t-55 171.5q0 75 29.5 133t83 90t121.5 32q99 0 155.5 -64t56.5 -177v-32zM185.5 389.5q-34.5 -36.5 -41.5 -104.5h257q-3 68 -34.5 104.5t-88.5 36.5
q-58 0 -92.5 -36.5z" />
    <glyph glyph-name="ecircumflex" unicode="&#xea;" horiz-adv-x="529" 
d="M488 227h-345q11 -155 154 -155q84 0 152 55l31 -71q-34 -29 -84 -46t-102 -17q-117 0 -184.5 67t-67.5 185q0 75 29.5 133t83 90t121.5 32q99 0 155.5 -64t56.5 -177v-32zM185.5 389.5q-34.5 -36.5 -41.5 -104.5h257q-3 68 -34.5 104.5t-88.5 36.5q-58 0 -92.5 -36.5z
M208 552h-86l121 203h66l121 -203h-86l-68 135z" />
    <glyph glyph-name="uni1EBF" unicode="&#x1ebf;" horiz-adv-x="529" 
d="M488 227h-345q11 -155 154 -155q84 0 152 55l31 -71q-34 -29 -84 -46t-102 -17q-117 0 -184.5 67t-67.5 185q0 75 29.5 133t83 90t121.5 32q99 0 155.5 -64t56.5 -177v-32zM185.5 389.5q-34.5 -36.5 -41.5 -104.5h257q-3 68 -34.5 104.5t-88.5 36.5q-58 0 -92.5 -36.5z
M420 656h-57l86 142h96zM205 552h-83l122 145h64l122 -145h-83l-71 91z" />
    <glyph glyph-name="uni1EC7" unicode="&#x1ec7;" horiz-adv-x="529" 
d="M488 227h-345q11 -155 154 -155q84 0 152 55l31 -71q-34 -29 -84 -46t-102 -17q-117 0 -184.5 67t-67.5 185q0 75 29.5 133t83 90t121.5 32q99 0 155.5 -64t56.5 -177v-32zM185.5 389.5q-34.5 -36.5 -41.5 -104.5h257q-3 68 -34.5 104.5t-88.5 36.5q-58 0 -92.5 -36.5z
M239 -86h106v-101h-106v101zM208 552h-86l121 203h66l121 -203h-86l-68 135z" />
    <glyph glyph-name="uni1EC1" unicode="&#x1ec1;" horiz-adv-x="529" 
d="M488 227h-345q11 -155 154 -155q84 0 152 55l31 -71q-34 -29 -84 -46t-102 -17q-117 0 -184.5 67t-67.5 185q0 75 29.5 133t83 90t121.5 32q99 0 155.5 -64t56.5 -177v-32zM185.5 389.5q-34.5 -36.5 -41.5 -104.5h257q-3 68 -34.5 104.5t-88.5 36.5q-58 0 -92.5 -36.5z
M406 656l-115 142h96l75 -142h-56zM205 552h-83l122 145h64l122 -145h-83l-71 91z" />
    <glyph glyph-name="uni1EC3" unicode="&#x1ec3;" horiz-adv-x="529" 
d="M488 227h-345q11 -155 154 -155q84 0 152 55l31 -71q-34 -29 -84 -46t-102 -17q-117 0 -184.5 67t-67.5 185q0 75 29.5 133t83 90t121.5 32q99 0 155.5 -64t56.5 -177v-32zM185.5 389.5q-34.5 -36.5 -41.5 -104.5h257q-3 68 -34.5 104.5t-88.5 36.5q-58 0 -92.5 -36.5z
M422 657h-60v17q0 18 11.5 27t32.5 18q23 9 23 17t-10 12.5t-28 4.5q-29 0 -60 -12l-16 45q43 17 85 17q47 0 74 -17t27 -45q0 -19 -12 -28.5t-34 -18.5q-16 -7 -24.5 -13t-8.5 -16v-8zM205 552h-83l122 145h64l122 -145h-83l-71 91z" />
    <glyph glyph-name="uni1EC5" unicode="&#x1ec5;" horiz-adv-x="529" 
d="M488 227h-345q11 -155 154 -155q84 0 152 55l31 -71q-34 -29 -84 -46t-102 -17q-117 0 -184.5 67t-67.5 185q0 75 29.5 133t83 90t121.5 32q99 0 155.5 -64t56.5 -177v-32zM185.5 389.5q-34.5 -36.5 -41.5 -104.5h257q-3 68 -34.5 104.5t-88.5 36.5q-58 0 -92.5 -36.5z
M138 784.5q27 28.5 68 28.5q20 0 38 -6t44 -17q15 -7 30.5 -12t26.5 -5q20 0 32 11.5t13 28.5h51q0 -43 -27 -71.5t-68 -28.5q-20 0 -38 6t-44 17q-15 7 -30.5 12t-26.5 5q-20 0 -32 -11.5t-13 -28.5h-51q0 43 27 71.5zM205 552h-83l122 145h64l122 -145h-83l-71 91z" />
    <glyph glyph-name="uni0205" unicode="&#x205;" horiz-adv-x="529" 
d="M488 227h-345q11 -155 154 -155q84 0 152 55l31 -71q-34 -29 -84 -46t-102 -17q-117 0 -184.5 67t-67.5 185q0 75 29.5 133t83 90t121.5 32q99 0 155.5 -64t56.5 -177v-32zM185.5 389.5q-34.5 -36.5 -41.5 -104.5h257q-3 68 -34.5 104.5t-88.5 36.5q-58 0 -92.5 -36.5z
M189 552l-78 203h84l42 -203h-48zM315 552l-78 203h84l42 -203h-48z" />
    <glyph glyph-name="edieresis" unicode="&#xeb;" horiz-adv-x="529" 
d="M488 227h-345q11 -155 154 -155q84 0 152 55l31 -71q-34 -29 -84 -46t-102 -17q-117 0 -184.5 67t-67.5 185q0 75 29.5 133t83 90t121.5 32q99 0 155.5 -64t56.5 -177v-32zM185.5 389.5q-34.5 -36.5 -41.5 -104.5h257q-3 68 -34.5 104.5t-88.5 36.5q-58 0 -92.5 -36.5z
M136 703h103v-99h-103v99zM313 703h103v-99h-103v99z" />
    <glyph glyph-name="edotaccent" unicode="&#x117;" horiz-adv-x="529" 
d="M488 227h-345q11 -155 154 -155q84 0 152 55l31 -71q-34 -29 -84 -46t-102 -17q-117 0 -184.5 67t-67.5 185q0 75 29.5 133t83 90t121.5 32q99 0 155.5 -64t56.5 -177v-32zM185.5 389.5q-34.5 -36.5 -41.5 -104.5h257q-3 68 -34.5 104.5t-88.5 36.5q-58 0 -92.5 -36.5z
M218 706h116v-105h-116v105z" />
    <glyph glyph-name="uni1EB9" unicode="&#x1eb9;" horiz-adv-x="529" 
d="M488 227h-345q11 -155 154 -155q84 0 152 55l31 -71q-34 -29 -84 -46t-102 -17q-117 0 -184.5 67t-67.5 185q0 75 29.5 133t83 90t121.5 32q99 0 155.5 -64t56.5 -177v-32zM185.5 389.5q-34.5 -36.5 -41.5 -104.5h257q-3 68 -34.5 104.5t-88.5 36.5q-58 0 -92.5 -36.5z
M239 -86h106v-101h-106v101z" />
    <glyph glyph-name="egrave" unicode="&#xe8;" horiz-adv-x="529" 
d="M488 227h-345q11 -155 154 -155q84 0 152 55l31 -71q-34 -29 -84 -46t-102 -17q-117 0 -184.5 67t-67.5 185q0 75 29.5 133t83 90t121.5 32q99 0 155.5 -64t56.5 -177v-32zM185.5 389.5q-34.5 -36.5 -41.5 -104.5h257q-3 68 -34.5 104.5t-88.5 36.5q-58 0 -92.5 -36.5z
M243 552l-141 203h108l99 -203h-66z" />
    <glyph glyph-name="uni1EBB" unicode="&#x1ebb;" horiz-adv-x="529" 
d="M488 227h-345q11 -155 154 -155q84 0 152 55l31 -71q-34 -29 -84 -46t-102 -17q-117 0 -184.5 67t-67.5 185q0 75 29.5 133t83 90t121.5 32q99 0 155.5 -64t56.5 -177v-32zM185.5 389.5q-34.5 -36.5 -41.5 -104.5h257q-3 68 -34.5 104.5t-88.5 36.5q-58 0 -92.5 -36.5z
M307 552h-59v27q0 21 10 35.5t28 30.5q13 12 18.5 19t5.5 16q0 11 -10 17.5t-28 6.5q-26 0 -56 -11l-17 48q40 17 82 17q49 0 76.5 -20t27.5 -50q0 -23 -11 -37.5t-32 -30.5q-18 -14 -26.5 -24.5t-8.5 -25.5v-18z" />
    <glyph glyph-name="uni0207" unicode="&#x207;" horiz-adv-x="529" 
d="M488 227h-345q11 -155 154 -155q84 0 152 55l31 -71q-34 -29 -84 -46t-102 -17q-117 0 -184.5 67t-67.5 185q0 75 29.5 133t83 90t121.5 32q99 0 155.5 -64t56.5 -177v-32zM185.5 389.5q-34.5 -36.5 -41.5 -104.5h257q-3 68 -34.5 104.5t-88.5 36.5q-58 0 -92.5 -36.5z
M380.5 700.5q46.5 -32.5 66.5 -98.5l-57 -24q-41 86 -114 86t-114 -86l-57 23q19 66 65.5 99t105.5 33q58 0 104.5 -32.5z" />
    <glyph glyph-name="emacron" unicode="&#x113;" horiz-adv-x="529" 
d="M488 227h-345q11 -155 154 -155q84 0 152 55l31 -71q-34 -29 -84 -46t-102 -17q-117 0 -184.5 67t-67.5 185q0 75 29.5 133t83 90t121.5 32q99 0 155.5 -64t56.5 -177v-32zM185.5 389.5q-34.5 -36.5 -41.5 -104.5h257q-3 68 -34.5 104.5t-88.5 36.5q-58 0 -92.5 -36.5z
M124 618v70h304v-70h-304z" />
    <glyph glyph-name="uni1E17" unicode="&#x1e17;" horiz-adv-x="529" 
d="M488 227h-345q11 -155 154 -155q84 0 152 55l31 -71q-34 -29 -84 -46t-102 -17q-117 0 -184.5 67t-67.5 185q0 75 29.5 133t83 90t121.5 32q99 0 155.5 -64t56.5 -177v-32zM185.5 389.5q-34.5 -36.5 -41.5 -104.5h257q-3 68 -34.5 104.5t-88.5 36.5q-58 0 -92.5 -36.5z
M124 618v70h304v-70h-304zM309 744h-66l99 203h108z" />
    <glyph glyph-name="uni1E15" unicode="&#x1e15;" horiz-adv-x="529" 
d="M488 227h-345q11 -155 154 -155q84 0 152 55l31 -71q-34 -29 -84 -46t-102 -17q-117 0 -184.5 67t-67.5 185q0 75 29.5 133t83 90t121.5 32q99 0 155.5 -64t56.5 -177v-32zM185.5 389.5q-34.5 -36.5 -41.5 -104.5h257q-3 68 -34.5 104.5t-88.5 36.5q-58 0 -92.5 -36.5z
M124 618v70h304v-70h-304zM243 744l-141 203h108l99 -203h-66z" />
    <glyph glyph-name="eogonek" unicode="&#x119;" horiz-adv-x="529" 
d="M488 227h-345q11 -155 154 -155q84 0 152 55l31 -70q-13 -13 -53 -33q-46 -25 -65 -47t-19 -51t16.5 -44.5t46.5 -15.5q25 0 57 16l17 -54q-41 -22 -90 -22q-53 0 -86.5 29.5t-33.5 76.5q0 48 35 81h-11q-117 0 -184.5 67t-67.5 185q0 75 29.5 133t83 90t121.5 32
q99 0 155.5 -64t56.5 -177v-32zM186 389q-35 -37 -42 -104h257q-3 68 -34.5 104.5t-88.5 36.5t-92 -37z" />
    <glyph glyph-name="uni1EBD" unicode="&#x1ebd;" horiz-adv-x="529" 
d="M488 227h-345q11 -155 154 -155q84 0 152 55l31 -71q-34 -29 -84 -46t-102 -17q-117 0 -184.5 67t-67.5 185q0 75 29.5 133t83 90t121.5 32q99 0 155.5 -64t56.5 -177v-32zM185.5 389.5q-34.5 -36.5 -41.5 -104.5h257q-3 68 -34.5 104.5t-88.5 36.5q-58 0 -92.5 -36.5z
M137 686q26 32 69 32q20 0 37.5 -8t44.5 -24q23 -13 34.5 -18.5t22.5 -5.5q20 0 32 15t13 38h51q0 -59 -26 -91t-69 -32q-20 0 -38.5 8t-43.5 23q-19 12 -32 18t-25 6q-20 0 -32 -14.5t-13 -37.5h-51q0 59 26 91z" />
    <glyph glyph-name="uni0259" unicode="&#x259;" horiz-adv-x="529" 
d="M371.5 469.5q55.5 -30.5 85.5 -88t30 -134.5q0 -76 -28.5 -133.5t-80 -89t-118.5 -31.5q-102 0 -160.5 63.5t-58.5 177.5v32h347q-10 154 -150 154q-76 0 -159 -55l-30 71q36 30 88 47t105 17q74 0 129.5 -30.5zM347 103q34 36 41 104h-257q3 -68 35 -104t90 -36
q57 0 91 36z" />
    <glyph glyph-name="f" unicode="f" horiz-adv-x="342" 
d="M202 488h134v-78h-134v-410h-101v410h-95v78h95v9q0 101 51.5 152t157.5 57l45 2l6 -76l-46 -3q-60 -3 -86.5 -31t-26.5 -85v-25z" />
    <glyph glyph-name="g" unicode="g" horiz-adv-x="595" 
d="M524 488v-449q0 -112 -59.5 -169t-175.5 -57q-63 0 -119.5 16.5t-100.5 47.5l31 73q48 -31 92.5 -44.5t95.5 -13.5q137 0 137 139v77q-21 -44 -64 -68.5t-100 -24.5q-64 0 -114 30t-77.5 85t-27.5 127t28 127t77.5 85.5t113.5 30.5q56 0 98.5 -24t64.5 -68v80h100z
M387 138q37 43 37 119q0 75 -36.5 118.5t-102.5 43.5t-103.5 -43t-37.5 -119t38 -119t103 -43t102 43z" />
    <glyph glyph-name="gbreve" unicode="&#x11f;" horiz-adv-x="595" 
d="M524 488v-449q0 -112 -59.5 -169t-175.5 -57q-63 0 -119.5 16.5t-100.5 47.5l31 73q48 -31 92.5 -44.5t95.5 -13.5q137 0 137 139v77q-21 -44 -64 -68.5t-100 -24.5q-64 0 -114 30t-77.5 85t-27.5 127t28 127t77.5 85.5t113.5 30.5q56 0 98.5 -24t64.5 -68v80h100z
M387 138q37 43 37 119q0 75 -36.5 118.5t-102.5 43.5t-103.5 -43t-37.5 -119t38 -119t103 -43t102 43zM194 613q-46 33 -66 99l57 24q22 -46 50 -66t64 -20t64 20t50 66l57 -24q-19 -66 -65.5 -99t-105.5 -33t-105 33z" />
    <glyph glyph-name="gcaron" unicode="&#x1e7;" horiz-adv-x="595" 
d="M524 488v-449q0 -112 -59.5 -169t-175.5 -57q-63 0 -119.5 16.5t-100.5 47.5l31 73q48 -31 92.5 -44.5t95.5 -13.5q137 0 137 139v77q-21 -44 -64 -68.5t-100 -24.5q-64 0 -114 30t-77.5 85t-27.5 127t28 127t77.5 85.5t113.5 30.5q56 0 98.5 -24t64.5 -68v80h100z
M387 138q37 43 37 119q0 75 -36.5 118.5t-102.5 43.5t-103.5 -43t-37.5 -119t38 -119t103 -43t102 43zM367 755h86l-121 -203h-66l-121 203h86l68 -135z" />
    <glyph glyph-name="gcircumflex" unicode="&#x11d;" horiz-adv-x="595" 
d="M524 488v-449q0 -112 -59.5 -169t-175.5 -57q-63 0 -119.5 16.5t-100.5 47.5l31 73q48 -31 92.5 -44.5t95.5 -13.5q137 0 137 139v77q-21 -44 -64 -68.5t-100 -24.5q-64 0 -114 30t-77.5 85t-27.5 127t28 127t77.5 85.5t113.5 30.5q56 0 98.5 -24t64.5 -68v80h100z
M387 138q37 43 37 119q0 75 -36.5 118.5t-102.5 43.5t-103.5 -43t-37.5 -119t38 -119t103 -43t102 43zM231 552h-86l121 203h66l121 -203h-86l-68 135z" />
    <glyph glyph-name="gcommaaccent" unicode="&#x123;" horiz-adv-x="595" 
d="M524 488v-449q0 -112 -59.5 -169t-175.5 -57q-63 0 -119.5 16.5t-100.5 47.5l31 73q48 -31 92.5 -44.5t95.5 -13.5q137 0 137 139v77q-21 -44 -64 -68.5t-100 -24.5q-64 0 -114 30t-77.5 85t-27.5 127t28 127t77.5 85.5t113.5 30.5q56 0 98.5 -24t64.5 -68v80h100z
M387 138q37 43 37 119q0 75 -36.5 118.5t-102.5 43.5t-103.5 -43t-37.5 -119t38 -119t103 -43t102 43zM355 673v-92h-113v60q0 42 12 74t42 60l41 -30q-18 -18 -25.5 -35t-9.5 -37h53z" />
    <glyph glyph-name="gdotaccent" unicode="&#x121;" horiz-adv-x="595" 
d="M524 488v-449q0 -112 -59.5 -169t-175.5 -57q-63 0 -119.5 16.5t-100.5 47.5l31 73q48 -31 92.5 -44.5t95.5 -13.5q137 0 137 139v77q-21 -44 -64 -68.5t-100 -24.5q-64 0 -114 30t-77.5 85t-27.5 127t28 127t77.5 85.5t113.5 30.5q56 0 98.5 -24t64.5 -68v80h100z
M387 138q37 43 37 119q0 75 -36.5 118.5t-102.5 43.5t-103.5 -43t-37.5 -119t38 -119t103 -43t102 43zM241 706h116v-105h-116v105z" />
    <glyph glyph-name="uni1E21" unicode="&#x1e21;" horiz-adv-x="595" 
d="M524 488v-449q0 -112 -59.5 -169t-175.5 -57q-63 0 -119.5 16.5t-100.5 47.5l31 73q48 -31 92.5 -44.5t95.5 -13.5q137 0 137 139v77q-21 -44 -64 -68.5t-100 -24.5q-64 0 -114 30t-77.5 85t-27.5 127t28 127t77.5 85.5t113.5 30.5q56 0 98.5 -24t64.5 -68v80h100z
M387 138q37 43 37 119q0 75 -36.5 118.5t-102.5 43.5t-103.5 -43t-37.5 -119t38 -119t103 -43t102 43zM147 618v70h304v-70h-304z" />
    <glyph glyph-name="h" unicode="h" horiz-adv-x="576" 
d="M508 303v-303h-101v298q0 62 -24.5 91t-76.5 29q-61 0 -98 -38t-37 -102v-278h-101v705h101v-291q25 42 67 64t95 22q175 0 175 -197z" />
    <glyph glyph-name="hbar" unicode="&#x127;" horiz-adv-x="576" 
d="M508 303v-303h-101v298q0 62 -24.5 91t-76.5 29q-61 0 -98 -38t-37 -102v-278h-101v548h-90v74h90v83h101v-83h191v-74h-191v-134q25 42 67 64t95 22q175 0 175 -197z" />
    <glyph glyph-name="uni1E2B" unicode="&#x1e2b;" horiz-adv-x="576" 
d="M508 303v-303h-101v298q0 62 -24.5 91t-76.5 29q-61 0 -98 -38t-37 -102v-278h-101v705h101v-291q25 42 67 64t95 22q175 0 175 -197zM184 -183q-46 33 -66 99l57 24q22 -46 50 -66t64 -20t64 20t50 66l57 -24q-19 -66 -65.5 -99t-105.5 -33t-105 33z" />
    <glyph glyph-name="hcircumflex" unicode="&#x125;" horiz-adv-x="576" 
d="M508 303v-303h-101v298q0 62 -24.5 91t-76.5 29q-61 0 -98 -38t-37 -102v-278h-101v705h101v-291q25 42 67 64t95 22q175 0 175 -197zM52 765h-84l122 153h64l122 -153h-84l-70 98z" />
    <glyph glyph-name="uni1E25" unicode="&#x1e25;" horiz-adv-x="576" 
d="M508 303v-303h-101v298q0 62 -24.5 91t-76.5 29q-61 0 -98 -38t-37 -102v-278h-101v705h101v-291q25 42 67 64t95 22q175 0 175 -197zM236 -86h106v-101h-106v101z" />
    <glyph glyph-name="i" unicode="i" horiz-adv-x="242" 
d="M70 0v488h101v-488h-101zM63 706h116v-105h-116v105z" />
    <glyph glyph-name="dotlessi" unicode="&#x131;" horiz-adv-x="242" 
d="M70 0v488h101v-488h-101z" />
    <glyph glyph-name="iacute" unicode="&#xed;" horiz-adv-x="242" 
d="M70 0v488h101v-488h-101zM154 552h-66l99 203h108z" />
    <glyph glyph-name="ibreve" unicode="&#x12d;" horiz-adv-x="242" 
d="M70 0v488h101v-488h-101zM16 613q-46 33 -66 99l57 24q22 -46 50 -66t64 -20t64 20t50 66l57 -24q-19 -66 -65.5 -99t-105.5 -33t-105 33z" />
    <glyph glyph-name="icircumflex" unicode="&#xee;" horiz-adv-x="242" 
d="M70 0v488h101v-488h-101zM53 552h-86l121 203h66l121 -203h-86l-68 135z" />
    <glyph glyph-name="uni0209" unicode="&#x209;" horiz-adv-x="242" 
d="M70 0v488h101v-488h-101zM34 552l-78 203h84l42 -203h-48zM160 552l-78 203h84l42 -203h-48z" />
    <glyph glyph-name="idieresis" unicode="&#xef;" horiz-adv-x="242" 
d="M70 0v488h101v-488h-101zM-19 703h103v-99h-103v99zM158 703h103v-99h-103v99z" />
    <glyph glyph-name="uni1E2F" unicode="&#x1e2f;" horiz-adv-x="242" 
d="M70 0v488h101v-488h-101zM-19 703h103v-99h-103v99zM158 703h103v-99h-103v99zM154 744h-66l99 203h108z" />
    <glyph glyph-name="i.loclTRK" horiz-adv-x="242" 
d="M70 0v488h101v-488h-101zM63 706h116v-105h-116v105z" />
    <glyph glyph-name="uni1ECB" unicode="&#x1ecb;" horiz-adv-x="242" 
d="M70 0v488h101v-488h-101zM63 706h116v-105h-116v105zM67 -86h106v-101h-106v101z" />
    <glyph glyph-name="igrave" unicode="&#xec;" horiz-adv-x="242" 
d="M70 0v488h101v-488h-101zM88 552l-141 203h108l99 -203h-66z" />
    <glyph glyph-name="uni1EC9" unicode="&#x1ec9;" horiz-adv-x="242" 
d="M70 0v488h101v-488h-101zM152 552h-59v27q0 21 10 35.5t28 30.5q13 12 18.5 19t5.5 16q0 11 -10 17.5t-28 6.5q-26 0 -56 -11l-17 48q40 17 82 17q49 0 76.5 -20t27.5 -50q0 -23 -11 -37.5t-32 -30.5q-18 -14 -26.5 -24.5t-8.5 -25.5v-18z" />
    <glyph glyph-name="uni020B" unicode="&#x20b;" horiz-adv-x="242" 
d="M70 0v488h101v-488h-101zM225.5 700.5q46.5 -32.5 66.5 -98.5l-57 -24q-41 86 -114 86t-114 -86l-57 23q19 66 65.5 99t105.5 33q58 0 104.5 -32.5z" />
    <glyph glyph-name="imacron" unicode="&#x12b;" horiz-adv-x="242" 
d="M70 0v488h101v-488h-101zM-31 618v70h304v-70h-304z" />
    <glyph glyph-name="iogonek" unicode="&#x12f;" horiz-adv-x="242" 
d="M179 706v-105h-116v105h116zM214 -172q-41 -22 -90 -22q-53 0 -86.5 29.5t-33.5 77.5q0 33 16.5 60.5t49.5 45.5v469h101v-488h-6q-41 0 -64.5 -21t-23.5 -53q0 -29 17 -44.5t47 -15.5q27 0 56 16z" />
    <glyph glyph-name="itilde" unicode="&#x129;" horiz-adv-x="242" 
d="M70 0v488h101v-488h-101zM-18 686q26 32 69 32q20 0 37.5 -8t44.5 -24q23 -13 34.5 -18.5t22.5 -5.5q20 0 32 15t13 38h51q0 -59 -26 -91t-69 -32q-20 0 -38.5 8t-43.5 23q-19 12 -32 18t-25 6q-20 0 -32 -14.5t-13 -37.5h-51q0 59 26 91z" />
    <glyph glyph-name="j" unicode="j" horiz-adv-x="242" 
d="M171 12q0 -95 -45.5 -141t-146.5 -52l-46 -3l-8 75l48 3q49 4 73 29t24 74v491h101v-476zM63 706h116v-105h-116v105z" />
    <glyph glyph-name="uni0237" unicode="&#x237;" horiz-adv-x="242" 
d="M171 12q0 -95 -45.5 -141t-146.5 -52l-46 -3l-8 75l48 3q49 4 73 29t24 74v491h101v-476z" />
    <glyph glyph-name="jcircumflex" unicode="&#x135;" horiz-adv-x="242" 
d="M171 12q0 -95 -45.5 -141t-146.5 -52l-46 -3l-8 75l48 3q49 4 73 29t24 74v491h101v-476zM53 552h-86l121 203h66l121 -203h-86l-68 135z" />
    <glyph glyph-name="k" unicode="k" horiz-adv-x="517" 
d="M530 0h-128l-231 230v-230h-101v705h101v-437l214 219h125l-231 -234z" />
    <glyph glyph-name="kcommaaccent" unicode="&#x137;" horiz-adv-x="517" 
d="M530 0h-128l-231 230v-230h-101v705h101v-437l214 219h125l-231 -234zM314 -70v-60q0 -42 -12 -74t-41 -60l-42 30q18 18 26 35t10 37h-54v92h113z" />
    <glyph glyph-name="kgreenlandic" unicode="&#x138;" horiz-adv-x="517" 
d="M530 0h-128l-231 230v-230h-101v488h101v-220l214 219h125l-231 -234z" />
    <glyph glyph-name="l" unicode="l" horiz-adv-x="242" 
d="M70 0v705h101v-705h-101z" />
    <glyph glyph-name="lacute" unicode="&#x13a;" horiz-adv-x="242" 
d="M70 0v705h101v-705h-101zM154 765h-66l101 153h103z" />
    <glyph glyph-name="lcaron" unicode="&#x13e;" horiz-adv-x="242" 
d="M70 0v705h101v-705h-101zM246 514h-42v191h68z" />
    <glyph glyph-name="lcommaaccent" unicode="&#x13c;" horiz-adv-x="242" 
d="M70 0v705h101v-705h-101zM177 -70v-60q0 -42 -12 -74t-41 -60l-42 30q18 18 26 35t10 37h-54v92h113z" />
    <glyph glyph-name="ldot" unicode="&#x140;" horiz-adv-x="294" 
d="M70 0v705h101v-705h-101zM208 407h119v-108h-119v108z" />
    <glyph glyph-name="uni1E37" unicode="&#x1e37;" horiz-adv-x="242" 
d="M70 0v705h101v-705h-101zM68 -86h106v-101h-106v101z" />
    <glyph glyph-name="uni01C9" unicode="&#x1c9;" horiz-adv-x="484" 
d="M70 0v705h101v-705h-101zM413 12q0 -95 -45.5 -141t-146.5 -52l-46 -3l-8 75l48 3q49 4 73 29t24 74v491h101v-476zM305 706h116v-105h-116v105z" />
    <glyph glyph-name="uni1E3B" unicode="&#x1e3b;" horiz-adv-x="242" 
d="M70 0v705h101v-705h-101zM-31 -170v67h304v-67h-304z" />
    <glyph glyph-name="lslash" unicode="&#x142;" horiz-adv-x="302" 
d="M312 402l-110 -64v-338h-101v280l-71 -41l-40 70l111 64v332h101v-273l70 40z" />
    <glyph glyph-name="m" unicode="m" horiz-adv-x="862" 
d="M794 303v-303h-101v299q0 62 -21.5 90.5t-69.5 28.5q-55 0 -87 -38t-32 -104v-276h-101v299q0 62 -22 90.5t-69 28.5q-56 0 -88 -38t-32 -104v-276h-101v488h99v-74q23 41 62 63.5t89 22.5q113 0 147 -94q23 44 66 69t97 25q164 0 164 -197z" />
    <glyph glyph-name="uni1E43" unicode="&#x1e43;" horiz-adv-x="862" 
d="M794 303v-303h-101v299q0 62 -21.5 90.5t-69.5 28.5q-55 0 -87 -38t-32 -104v-276h-101v299q0 62 -22 90.5t-69 28.5q-56 0 -88 -38t-32 -104v-276h-101v488h99v-74q23 41 62 63.5t89 22.5q113 0 147 -94q23 44 66 69t97 25q164 0 164 -197zM379 -86h106v-101h-106v101z
" />
    <glyph glyph-name="n" unicode="n" horiz-adv-x="576" 
d="M508 303v-303h-101v298q0 62 -24.5 91t-76.5 29q-61 0 -98 -38t-37 -102v-278h-101v488h99v-78q24 44 67 67t97 23q175 0 175 -197z" />
    <glyph glyph-name="nacute" unicode="&#x144;" horiz-adv-x="576" 
d="M508 303v-303h-101v298q0 62 -24.5 91t-76.5 29q-61 0 -98 -38t-37 -102v-278h-101v488h99v-78q24 44 67 67t97 23q175 0 175 -197zM322 552h-66l99 203h108z" />
    <glyph glyph-name="napostrophe" unicode="&#x149;" horiz-adv-x="576" 
d="M204 755v-59q0 -42 -12 -74t-42 -60l-41 30q18 18 25.5 35t9.5 37h-53v91h113zM508 303v-303h-101v298q0 62 -24.5 91t-76.5 29q-61 0 -98 -38t-37 -102v-278h-101v488h99v-78q24 44 67 67t97 23q175 0 175 -197z" />
    <glyph glyph-name="ncaron" unicode="&#x148;" horiz-adv-x="576" 
d="M508 303v-303h-101v298q0 62 -24.5 91t-76.5 29q-61 0 -98 -38t-37 -102v-278h-101v488h99v-78q24 44 67 67t97 23q175 0 175 -197zM357 755h86l-121 -203h-66l-121 203h86l68 -135z" />
    <glyph glyph-name="ncommaaccent" unicode="&#x146;" horiz-adv-x="576" 
d="M508 303v-303h-101v298q0 62 -24.5 91t-76.5 29q-61 0 -98 -38t-37 -102v-278h-101v488h99v-78q24 44 67 67t97 23q175 0 175 -197zM345 -70v-60q0 -42 -12 -74t-41 -60l-42 30q18 18 26 35t10 37h-54v92h113z" />
    <glyph glyph-name="uni1E45" unicode="&#x1e45;" horiz-adv-x="576" 
d="M508 303v-303h-101v298q0 62 -24.5 91t-76.5 29q-61 0 -98 -38t-37 -102v-278h-101v488h99v-78q24 44 67 67t97 23q175 0 175 -197zM231 706h116v-105h-116v105z" />
    <glyph glyph-name="uni1E47" unicode="&#x1e47;" horiz-adv-x="576" 
d="M508 303v-303h-101v298q0 62 -24.5 91t-76.5 29q-61 0 -98 -38t-37 -102v-278h-101v488h99v-78q24 44 67 67t97 23q175 0 175 -197zM236 -86h106v-101h-106v101z" />
    <glyph glyph-name="eng" unicode="&#x14b;" horiz-adv-x="576" 
d="M508 303v-290q0 -94 -45 -140.5t-148 -53.5l-45 -3l-7 75l46 4q50 3 74 28t24 74v301q0 64 -25 92t-76 28q-60 0 -97.5 -37.5t-37.5 -102.5v-278h-101v488h99v-77q25 43 67.5 66t96.5 23q175 0 175 -197z" />
    <glyph glyph-name="uni01CC" unicode="&#x1cc;" horiz-adv-x="818" 
d="M508 303v-303h-101v298q0 62 -24.5 91t-76.5 29q-61 0 -98 -38t-37 -102v-278h-101v488h99v-78q24 44 67 67t97 23q175 0 175 -197zM747 12q0 -95 -45.5 -141t-146.5 -52l-46 -3l-8 75l48 3q49 4 73 29t24 74v491h101v-476zM639 706h116v-105h-116v105z" />
    <glyph glyph-name="uni1E49" unicode="&#x1e49;" horiz-adv-x="576" 
d="M508 303v-303h-101v298q0 62 -24.5 91t-76.5 29q-61 0 -98 -38t-37 -102v-278h-101v488h99v-78q24 44 67 67t97 23q175 0 175 -197zM137 -170v67h304v-67h-304z" />
    <glyph glyph-name="ntilde" unicode="&#xf1;" horiz-adv-x="576" 
d="M508 303v-303h-101v298q0 62 -24.5 91t-76.5 29q-61 0 -98 -38t-37 -102v-278h-101v488h99v-78q24 44 67 67t97 23q175 0 175 -197zM150 686q26 32 69 32q20 0 37.5 -8t44.5 -24q23 -13 34.5 -18.5t22.5 -5.5q20 0 32 15t13 38h51q0 -59 -26 -91t-69 -32q-20 0 -38.5 8
t-43.5 23q-19 12 -32 18t-25 6q-20 0 -32 -14.5t-13 -37.5h-51q0 59 26 91z" />
    <glyph glyph-name="o" unicode="o" horiz-adv-x="564" 
d="M155.5 24q-54.5 31 -84 88.5t-29.5 133.5q0 77 29.5 134.5t84 88.5t126.5 31t126.5 -31t84 -88.5t29.5 -134.5q0 -76 -29.5 -133.5t-84 -88.5t-126.5 -31t-126.5 31zM384.5 117q35.5 44 35.5 129q0 84 -36 128.5t-102 44.5t-102 -44.5t-36 -128.5q0 -85 35.5 -129
t102.5 -44t102.5 44z" />
    <glyph glyph-name="oacute" unicode="&#xf3;" horiz-adv-x="564" 
d="M155.5 24q-54.5 31 -84 88.5t-29.5 133.5q0 77 29.5 134.5t84 88.5t126.5 31t126.5 -31t84 -88.5t29.5 -134.5q0 -76 -29.5 -133.5t-84 -88.5t-126.5 -31t-126.5 31zM384.5 117q35.5 44 35.5 129q0 84 -36 128.5t-102 44.5t-102 -44.5t-36 -128.5q0 -85 35.5 -129
t102.5 -44t102.5 44zM315 552h-66l99 203h108z" />
    <glyph glyph-name="obreve" unicode="&#x14f;" horiz-adv-x="564" 
d="M155.5 24q-54.5 31 -84 88.5t-29.5 133.5q0 77 29.5 134.5t84 88.5t126.5 31t126.5 -31t84 -88.5t29.5 -134.5q0 -76 -29.5 -133.5t-84 -88.5t-126.5 -31t-126.5 31zM384.5 117q35.5 44 35.5 129q0 84 -36 128.5t-102 44.5t-102 -44.5t-36 -128.5q0 -85 35.5 -129
t102.5 -44t102.5 44zM177 613q-46 33 -66 99l57 24q22 -46 50 -66t64 -20t64 20t50 66l57 -24q-19 -66 -65.5 -99t-105.5 -33t-105 33z" />
    <glyph glyph-name="ocircumflex" unicode="&#xf4;" horiz-adv-x="564" 
d="M155.5 24q-54.5 31 -84 88.5t-29.5 133.5q0 77 29.5 134.5t84 88.5t126.5 31t126.5 -31t84 -88.5t29.5 -134.5q0 -76 -29.5 -133.5t-84 -88.5t-126.5 -31t-126.5 31zM384.5 117q35.5 44 35.5 129q0 84 -36 128.5t-102 44.5t-102 -44.5t-36 -128.5q0 -85 35.5 -129
t102.5 -44t102.5 44zM214 552h-86l121 203h66l121 -203h-86l-68 135z" />
    <glyph glyph-name="uni1ED1" unicode="&#x1ed1;" horiz-adv-x="564" 
d="M155.5 24q-54.5 31 -84 88.5t-29.5 133.5q0 77 29.5 134.5t84 88.5t126.5 31t126.5 -31t84 -88.5t29.5 -134.5q0 -76 -29.5 -133.5t-84 -88.5t-126.5 -31t-126.5 31zM384.5 117q35.5 44 35.5 129q0 84 -36 128.5t-102 44.5t-102 -44.5t-36 -128.5q0 -85 35.5 -129
t102.5 -44t102.5 44zM426 656h-57l86 142h96zM211 552h-83l122 145h64l122 -145h-83l-71 91z" />
    <glyph glyph-name="uni1ED9" unicode="&#x1ed9;" horiz-adv-x="564" 
d="M155.5 24q-54.5 31 -84 88.5t-29.5 133.5q0 77 29.5 134.5t84 88.5t126.5 31t126.5 -31t84 -88.5t29.5 -134.5q0 -76 -29.5 -133.5t-84 -88.5t-126.5 -31t-126.5 31zM384.5 117q35.5 44 35.5 129q0 84 -36 128.5t-102 44.5t-102 -44.5t-36 -128.5q0 -85 35.5 -129
t102.5 -44t102.5 44zM229 -86h106v-101h-106v101zM214 552h-86l121 203h66l121 -203h-86l-68 135z" />
    <glyph glyph-name="uni1ED3" unicode="&#x1ed3;" horiz-adv-x="564" 
d="M155.5 24q-54.5 31 -84 88.5t-29.5 133.5q0 77 29.5 134.5t84 88.5t126.5 31t126.5 -31t84 -88.5t29.5 -134.5q0 -76 -29.5 -133.5t-84 -88.5t-126.5 -31t-126.5 31zM384.5 117q35.5 44 35.5 129q0 84 -36 128.5t-102 44.5t-102 -44.5t-36 -128.5q0 -85 35.5 -129
t102.5 -44t102.5 44zM412 656l-115 142h96l75 -142h-56zM211 552h-83l122 145h64l122 -145h-83l-71 91z" />
    <glyph glyph-name="uni1ED5" unicode="&#x1ed5;" horiz-adv-x="564" 
d="M155.5 24q-54.5 31 -84 88.5t-29.5 133.5q0 77 29.5 134.5t84 88.5t126.5 31t126.5 -31t84 -88.5t29.5 -134.5q0 -76 -29.5 -133.5t-84 -88.5t-126.5 -31t-126.5 31zM384.5 117q35.5 44 35.5 129q0 84 -36 128.5t-102 44.5t-102 -44.5t-36 -128.5q0 -85 35.5 -129
t102.5 -44t102.5 44zM428 657h-60v17q0 18 11.5 27t32.5 18q23 9 23 17t-10 12.5t-28 4.5q-29 0 -60 -12l-16 45q43 17 85 17q47 0 74 -17t27 -45q0 -19 -12 -28.5t-34 -18.5q-16 -7 -24.5 -13t-8.5 -16v-8zM211 552h-83l122 145h64l122 -145h-83l-71 91z" />
    <glyph glyph-name="uni1ED7" unicode="&#x1ed7;" horiz-adv-x="564" 
d="M155.5 24q-54.5 31 -84 88.5t-29.5 133.5q0 77 29.5 134.5t84 88.5t126.5 31t126.5 -31t84 -88.5t29.5 -134.5q0 -76 -29.5 -133.5t-84 -88.5t-126.5 -31t-126.5 31zM384.5 117q35.5 44 35.5 129q0 84 -36 128.5t-102 44.5t-102 -44.5t-36 -128.5q0 -85 35.5 -129
t102.5 -44t102.5 44zM144 784.5q27 28.5 68 28.5q20 0 38 -6t44 -17q15 -7 30.5 -12t26.5 -5q20 0 32 11.5t13 28.5h51q0 -43 -27 -71.5t-68 -28.5q-20 0 -38 6t-44 17q-15 7 -30.5 12t-26.5 5q-20 0 -32 -11.5t-13 -28.5h-51q0 43 27 71.5zM211 552h-83l122 145h64
l122 -145h-83l-71 91z" />
    <glyph glyph-name="uni020D" unicode="&#x20d;" horiz-adv-x="564" 
d="M155.5 24q-54.5 31 -84 88.5t-29.5 133.5q0 77 29.5 134.5t84 88.5t126.5 31t126.5 -31t84 -88.5t29.5 -134.5q0 -76 -29.5 -133.5t-84 -88.5t-126.5 -31t-126.5 31zM384.5 117q35.5 44 35.5 129q0 84 -36 128.5t-102 44.5t-102 -44.5t-36 -128.5q0 -85 35.5 -129
t102.5 -44t102.5 44zM195 552l-78 203h84l42 -203h-48zM321 552l-78 203h84l42 -203h-48z" />
    <glyph glyph-name="odieresis" unicode="&#xf6;" horiz-adv-x="564" 
d="M155.5 24q-54.5 31 -84 88.5t-29.5 133.5q0 77 29.5 134.5t84 88.5t126.5 31t126.5 -31t84 -88.5t29.5 -134.5q0 -76 -29.5 -133.5t-84 -88.5t-126.5 -31t-126.5 31zM384.5 117q35.5 44 35.5 129q0 84 -36 128.5t-102 44.5t-102 -44.5t-36 -128.5q0 -85 35.5 -129
t102.5 -44t102.5 44zM142 703h103v-99h-103v99zM319 703h103v-99h-103v99z" />
    <glyph glyph-name="uni022B" unicode="&#x22b;" horiz-adv-x="564" 
d="M155.5 24q-54.5 31 -84 88.5t-29.5 133.5q0 77 29.5 134.5t84 88.5t126.5 31t126.5 -31t84 -88.5t29.5 -134.5q0 -76 -29.5 -133.5t-84 -88.5t-126.5 -31t-126.5 31zM384.5 117q35.5 44 35.5 129q0 84 -36 128.5t-102 44.5t-102 -44.5t-36 -128.5q0 -85 35.5 -129
t102.5 -44t102.5 44zM142 703h103v-99h-103v99zM319 703h103v-99h-103v99zM130 810v70h304v-70h-304z" />
    <glyph glyph-name="uni0231" unicode="&#x231;" horiz-adv-x="564" 
d="M155.5 24q-54.5 31 -84 88.5t-29.5 133.5q0 77 29.5 134.5t84 88.5t126.5 31t126.5 -31t84 -88.5t29.5 -134.5q0 -76 -29.5 -133.5t-84 -88.5t-126.5 -31t-126.5 31zM384.5 117q35.5 44 35.5 129q0 84 -36 128.5t-102 44.5t-102 -44.5t-36 -128.5q0 -85 35.5 -129
t102.5 -44t102.5 44zM224 706h116v-105h-116v105zM130 810v70h304v-70h-304z" />
    <glyph glyph-name="uni1ECD" unicode="&#x1ecd;" horiz-adv-x="564" 
d="M155.5 24q-54.5 31 -84 88.5t-29.5 133.5q0 77 29.5 134.5t84 88.5t126.5 31t126.5 -31t84 -88.5t29.5 -134.5q0 -76 -29.5 -133.5t-84 -88.5t-126.5 -31t-126.5 31zM384.5 117q35.5 44 35.5 129q0 84 -36 128.5t-102 44.5t-102 -44.5t-36 -128.5q0 -85 35.5 -129
t102.5 -44t102.5 44zM229 -86h106v-101h-106v101z" />
    <glyph glyph-name="ograve" unicode="&#xf2;" horiz-adv-x="564" 
d="M155.5 24q-54.5 31 -84 88.5t-29.5 133.5q0 77 29.5 134.5t84 88.5t126.5 31t126.5 -31t84 -88.5t29.5 -134.5q0 -76 -29.5 -133.5t-84 -88.5t-126.5 -31t-126.5 31zM384.5 117q35.5 44 35.5 129q0 84 -36 128.5t-102 44.5t-102 -44.5t-36 -128.5q0 -85 35.5 -129
t102.5 -44t102.5 44zM249 552l-141 203h108l99 -203h-66z" />
    <glyph glyph-name="uni1ECF" unicode="&#x1ecf;" horiz-adv-x="564" 
d="M155.5 24q-54.5 31 -84 88.5t-29.5 133.5q0 77 29.5 134.5t84 88.5t126.5 31t126.5 -31t84 -88.5t29.5 -134.5q0 -76 -29.5 -133.5t-84 -88.5t-126.5 -31t-126.5 31zM384.5 117q35.5 44 35.5 129q0 84 -36 128.5t-102 44.5t-102 -44.5t-36 -128.5q0 -85 35.5 -129
t102.5 -44t102.5 44zM313 552h-59v27q0 21 10 35.5t28 30.5q13 12 18.5 19t5.5 16q0 11 -10 17.5t-28 6.5q-26 0 -56 -11l-17 48q40 17 82 17q49 0 76.5 -20t27.5 -50q0 -23 -11 -37.5t-32 -30.5q-18 -14 -26.5 -24.5t-8.5 -25.5v-18z" />
    <glyph glyph-name="ohorn" unicode="&#x1a1;" horiz-adv-x="564" 
d="M506.5 497.5q-24.5 -36.5 -68.5 -52.5q41 -32 62.5 -83.5t21.5 -115.5q0 -76 -29.5 -133.5t-84 -88.5t-126.5 -31t-126.5 31t-84 88.5t-29.5 133.5q0 77 29.5 134.5t84 88.5t125.5 31q19 0 49 -4q17 -3 26 -3q43 0 65 24t22 83v16h88v-30q0 -52 -24.5 -88.5zM384.5 117
q35.5 44 35.5 129q0 84 -36 128.5t-102 44.5t-102 -44.5t-36 -128.5q0 -85 35.5 -129t102.5 -44t102.5 44z" />
    <glyph glyph-name="uni1EDB" unicode="&#x1edb;" horiz-adv-x="564" 
d="M506.5 497.5q-24.5 -36.5 -68.5 -52.5q41 -32 62.5 -83.5t21.5 -115.5q0 -76 -29.5 -133.5t-84 -88.5t-126.5 -31t-126.5 31t-84 88.5t-29.5 133.5q0 77 29.5 134.5t84 88.5t125.5 31q19 0 49 -4q17 -3 26 -3q43 0 65 24t22 83v16h88v-30q0 -52 -24.5 -88.5zM384.5 117
q35.5 44 35.5 129q0 84 -36 128.5t-102 44.5t-102 -44.5t-36 -128.5q0 -85 35.5 -129t102.5 -44t102.5 44zM315 552h-66l99 203h108z" />
    <glyph glyph-name="uni1EE3" unicode="&#x1ee3;" horiz-adv-x="564" 
d="M506.5 497.5q-24.5 -36.5 -68.5 -52.5q41 -32 62.5 -83.5t21.5 -115.5q0 -76 -29.5 -133.5t-84 -88.5t-126.5 -31t-126.5 31t-84 88.5t-29.5 133.5q0 77 29.5 134.5t84 88.5t125.5 31q19 0 49 -4q17 -3 26 -3q43 0 65 24t22 83v16h88v-30q0 -52 -24.5 -88.5zM384.5 117
q35.5 44 35.5 129q0 84 -36 128.5t-102 44.5t-102 -44.5t-36 -128.5q0 -85 35.5 -129t102.5 -44t102.5 44zM229 -86h106v-101h-106v101z" />
    <glyph glyph-name="uni1EDD" unicode="&#x1edd;" horiz-adv-x="564" 
d="M506.5 497.5q-24.5 -36.5 -68.5 -52.5q41 -32 62.5 -83.5t21.5 -115.5q0 -76 -29.5 -133.5t-84 -88.5t-126.5 -31t-126.5 31t-84 88.5t-29.5 133.5q0 77 29.5 134.5t84 88.5t125.5 31q19 0 49 -4q17 -3 26 -3q43 0 65 24t22 83v16h88v-30q0 -52 -24.5 -88.5zM384.5 117
q35.5 44 35.5 129q0 84 -36 128.5t-102 44.5t-102 -44.5t-36 -128.5q0 -85 35.5 -129t102.5 -44t102.5 44zM249 552l-141 203h108l99 -203h-66z" />
    <glyph glyph-name="uni1EDF" unicode="&#x1edf;" horiz-adv-x="564" 
d="M506.5 497.5q-24.5 -36.5 -68.5 -52.5q41 -32 62.5 -83.5t21.5 -115.5q0 -76 -29.5 -133.5t-84 -88.5t-126.5 -31t-126.5 31t-84 88.5t-29.5 133.5q0 77 29.5 134.5t84 88.5t125.5 31q19 0 49 -4q17 -3 26 -3q43 0 65 24t22 83v16h88v-30q0 -52 -24.5 -88.5zM384.5 117
q35.5 44 35.5 129q0 84 -36 128.5t-102 44.5t-102 -44.5t-36 -128.5q0 -85 35.5 -129t102.5 -44t102.5 44zM313 552h-59v27q0 21 10 35.5t28 30.5q13 12 18.5 19t5.5 16q0 11 -10 17.5t-28 6.5q-26 0 -56 -11l-17 48q40 17 82 17q49 0 76.5 -20t27.5 -50q0 -23 -11 -37.5
t-32 -30.5q-18 -14 -26.5 -24.5t-8.5 -25.5v-18z" />
    <glyph glyph-name="uni1EE1" unicode="&#x1ee1;" horiz-adv-x="564" 
d="M506.5 497.5q-24.5 -36.5 -68.5 -52.5q41 -32 62.5 -83.5t21.5 -115.5q0 -76 -29.5 -133.5t-84 -88.5t-126.5 -31t-126.5 31t-84 88.5t-29.5 133.5q0 77 29.5 134.5t84 88.5t125.5 31q19 0 49 -4q17 -3 26 -3q43 0 65 24t22 83v16h88v-30q0 -52 -24.5 -88.5zM384.5 117
q35.5 44 35.5 129q0 84 -36 128.5t-102 44.5t-102 -44.5t-36 -128.5q0 -85 35.5 -129t102.5 -44t102.5 44zM143 686q26 32 69 32q20 0 37.5 -8t44.5 -24q23 -13 34.5 -18.5t22.5 -5.5q20 0 32 15t13 38h51q0 -59 -26 -91t-69 -32q-20 0 -38.5 8t-43.5 23q-19 12 -32 18
t-25 6q-20 0 -32 -14.5t-13 -37.5h-51q0 59 26 91z" />
    <glyph glyph-name="ohungarumlaut" unicode="&#x151;" horiz-adv-x="564" 
d="M155.5 24q-54.5 31 -84 88.5t-29.5 133.5q0 77 29.5 134.5t84 88.5t126.5 31t126.5 -31t84 -88.5t29.5 -134.5q0 -76 -29.5 -133.5t-84 -88.5t-126.5 -31t-126.5 31zM384.5 117q35.5 44 35.5 129q0 84 -36 128.5t-102 44.5t-102 -44.5t-36 -128.5q0 -85 35.5 -129
t102.5 -44t102.5 44zM243 552h-48l42 203h84zM369 552h-48l42 203h84z" />
    <glyph glyph-name="uni020F" unicode="&#x20f;" horiz-adv-x="564" 
d="M155.5 24q-54.5 31 -84 88.5t-29.5 133.5q0 77 29.5 134.5t84 88.5t126.5 31t126.5 -31t84 -88.5t29.5 -134.5q0 -76 -29.5 -133.5t-84 -88.5t-126.5 -31t-126.5 31zM384.5 117q35.5 44 35.5 129q0 84 -36 128.5t-102 44.5t-102 -44.5t-36 -128.5q0 -85 35.5 -129
t102.5 -44t102.5 44zM386.5 700.5q46.5 -32.5 66.5 -98.5l-57 -24q-41 86 -114 86t-114 -86l-57 23q19 66 65.5 99t105.5 33q58 0 104.5 -32.5z" />
    <glyph glyph-name="omacron" unicode="&#x14d;" horiz-adv-x="564" 
d="M155.5 24q-54.5 31 -84 88.5t-29.5 133.5q0 77 29.5 134.5t84 88.5t126.5 31t126.5 -31t84 -88.5t29.5 -134.5q0 -76 -29.5 -133.5t-84 -88.5t-126.5 -31t-126.5 31zM384.5 117q35.5 44 35.5 129q0 84 -36 128.5t-102 44.5t-102 -44.5t-36 -128.5q0 -85 35.5 -129
t102.5 -44t102.5 44zM130 618v70h304v-70h-304z" />
    <glyph glyph-name="uni1E53" unicode="&#x1e53;" horiz-adv-x="564" 
d="M155.5 24q-54.5 31 -84 88.5t-29.5 133.5q0 77 29.5 134.5t84 88.5t126.5 31t126.5 -31t84 -88.5t29.5 -134.5q0 -76 -29.5 -133.5t-84 -88.5t-126.5 -31t-126.5 31zM384.5 117q35.5 44 35.5 129q0 84 -36 128.5t-102 44.5t-102 -44.5t-36 -128.5q0 -85 35.5 -129
t102.5 -44t102.5 44zM130 618v70h304v-70h-304zM315 744h-66l99 203h108z" />
    <glyph glyph-name="uni1E51" unicode="&#x1e51;" horiz-adv-x="564" 
d="M155.5 24q-54.5 31 -84 88.5t-29.5 133.5q0 77 29.5 134.5t84 88.5t126.5 31t126.5 -31t84 -88.5t29.5 -134.5q0 -76 -29.5 -133.5t-84 -88.5t-126.5 -31t-126.5 31zM384.5 117q35.5 44 35.5 129q0 84 -36 128.5t-102 44.5t-102 -44.5t-36 -128.5q0 -85 35.5 -129
t102.5 -44t102.5 44zM130 618v70h304v-70h-304zM249 744l-141 203h108l99 -203h-66z" />
    <glyph glyph-name="uni01EB" unicode="&#x1eb;" horiz-adv-x="564" 
d="M310.5 -25q-18.5 -19 -18.5 -49q0 -28 17 -44t47 -16q25 0 57 16l16 -54q-39 -22 -89 -22q-53 0 -86.5 29.5t-33.5 76.5q0 50 34 82q-98 9 -155 76.5t-57 175.5q0 77 29.5 134.5t84 88.5t126.5 31t126.5 -31t84 -88.5t29.5 -134.5q0 -90 -40.5 -153.5t-111.5 -85.5
q-41 -13 -59.5 -32zM384.5 117q35.5 44 35.5 129q0 84 -36 128.5t-102 44.5t-102 -44.5t-36 -128.5q0 -85 35.5 -129t102.5 -44t102.5 44z" />
    <glyph glyph-name="oslash" unicode="&#xf8;" horiz-adv-x="564" 
d="M500 364q22 -52 22 -118q0 -76 -29.5 -133.5t-84 -88.5t-126.5 -31q-55 0 -100 18l-36 -62l-54 33l36 61q-42 33 -64 85t-22 118q0 77 29.5 134.5t84 88.5t126.5 31q58 0 100 -19l36 62l55 -32l-36 -62q41 -33 63 -85zM174 123l166 286q-27 11 -58 11q-67 0 -103 -45
t-36 -129q0 -78 31 -123zM385.5 117q35.5 44 35.5 129q0 77 -31 122l-166 -285q24 -10 58 -10q68 0 103.5 44z" />
    <glyph glyph-name="oslashacute" unicode="&#x1ff;" horiz-adv-x="564" 
d="M500 364q22 -52 22 -118q0 -76 -29.5 -133.5t-84 -88.5t-126.5 -31q-55 0 -100 18l-36 -62l-54 33l36 61q-42 33 -64 85t-22 118q0 77 29.5 134.5t84 88.5t126.5 31q58 0 100 -19l36 62l55 -32l-36 -62q41 -33 63 -85zM174 123l166 286q-27 11 -58 11q-67 0 -103 -45
t-36 -129q0 -78 31 -123zM385.5 117q35.5 44 35.5 129q0 77 -31 122l-166 -285q24 -10 58 -10q68 0 103.5 44zM315 552h-66l99 203h108z" />
    <glyph glyph-name="otilde" unicode="&#xf5;" horiz-adv-x="564" 
d="M155.5 24q-54.5 31 -84 88.5t-29.5 133.5q0 77 29.5 134.5t84 88.5t126.5 31t126.5 -31t84 -88.5t29.5 -134.5q0 -76 -29.5 -133.5t-84 -88.5t-126.5 -31t-126.5 31zM384.5 117q35.5 44 35.5 129q0 84 -36 128.5t-102 44.5t-102 -44.5t-36 -128.5q0 -85 35.5 -129
t102.5 -44t102.5 44zM143 686q26 32 69 32q20 0 37.5 -8t44.5 -24q23 -13 34.5 -18.5t22.5 -5.5q20 0 32 15t13 38h51q0 -59 -26 -91t-69 -32q-20 0 -38.5 8t-43.5 23q-19 12 -32 18t-25 6q-20 0 -32 -14.5t-13 -37.5h-51q0 59 26 91z" />
    <glyph glyph-name="uni1E4D" unicode="&#x1e4d;" horiz-adv-x="564" 
d="M155.5 24q-54.5 31 -84 88.5t-29.5 133.5q0 77 29.5 134.5t84 88.5t126.5 31t126.5 -31t84 -88.5t29.5 -134.5q0 -76 -29.5 -133.5t-84 -88.5t-126.5 -31t-126.5 31zM384.5 117q35.5 44 35.5 129q0 84 -36 128.5t-102 44.5t-102 -44.5t-36 -128.5q0 -85 35.5 -129
t102.5 -44t102.5 44zM143 686q26 32 69 32q20 0 37.5 -8t44.5 -24q23 -13 34.5 -18.5t22.5 -5.5q20 0 32 15t13 38h51q0 -59 -26 -91t-69 -32q-20 0 -38.5 8t-43.5 23q-19 12 -32 18t-25 6q-20 0 -32 -14.5t-13 -37.5h-51q0 59 26 91zM315 744h-66l99 203h108z" />
    <glyph glyph-name="uni1E4F" unicode="&#x1e4f;" horiz-adv-x="564" 
d="M155.5 24q-54.5 31 -84 88.5t-29.5 133.5q0 77 29.5 134.5t84 88.5t126.5 31t126.5 -31t84 -88.5t29.5 -134.5q0 -76 -29.5 -133.5t-84 -88.5t-126.5 -31t-126.5 31zM384.5 117q35.5 44 35.5 129q0 84 -36 128.5t-102 44.5t-102 -44.5t-36 -128.5q0 -85 35.5 -129
t102.5 -44t102.5 44zM143 686q26 32 69 32q20 0 37.5 -8t44.5 -24q23 -13 34.5 -18.5t22.5 -5.5q20 0 32 15t13 38h51q0 -59 -26 -91t-69 -32q-20 0 -38.5 8t-43.5 23q-19 12 -32 18t-25 6q-20 0 -32 -14.5t-13 -37.5h-51q0 59 26 91zM142 895h103v-99h-103v99zM319 895h103
v-99h-103v99z" />
    <glyph glyph-name="uni022D" unicode="&#x22d;" horiz-adv-x="564" 
d="M155.5 24q-54.5 31 -84 88.5t-29.5 133.5q0 77 29.5 134.5t84 88.5t126.5 31t126.5 -31t84 -88.5t29.5 -134.5q0 -76 -29.5 -133.5t-84 -88.5t-126.5 -31t-126.5 31zM384.5 117q35.5 44 35.5 129q0 84 -36 128.5t-102 44.5t-102 -44.5t-36 -128.5q0 -85 35.5 -129
t102.5 -44t102.5 44zM143 686q26 32 69 32q20 0 37.5 -8t44.5 -24q23 -13 34.5 -18.5t22.5 -5.5q20 0 32 15t13 38h51q0 -59 -26 -91t-69 -32q-20 0 -38.5 8t-43.5 23q-19 12 -32 18t-25 6q-20 0 -32 -14.5t-13 -37.5h-51q0 59 26 91zM130 810v70h304v-70h-304z" />
    <glyph glyph-name="oe" unicode="&#x153;" horiz-adv-x="902" 
d="M862 227h-341q10 -155 148 -155q82 0 154 55l31 -71q-34 -29 -84 -46t-101 -17q-69 0 -119 26.5t-79 76.5q-29 -50 -78 -76.5t-113 -26.5q-71 0 -125 31t-83.5 88.5t-29.5 133.5q0 77 29.5 134.5t83.5 88.5t125 31q64 0 113 -27t78 -77q29 49 77 76.5t109 27.5
q94 0 149.5 -65t55.5 -176v-32zM563 389q-35 -37 -42 -104h253q-2 68 -33 104.5t-86 36.5q-57 0 -92 -37zM382.5 117q35.5 44 35.5 129q0 84 -35.5 128.5t-101.5 44.5q-65 0 -101 -44.5t-36 -128.5q0 -85 35.5 -129t101.5 -44t101.5 44z" />
    <glyph glyph-name="p" unicode="p" horiz-adv-x="591" 
d="M444.5 468q49.5 -32 77 -90t27.5 -134q0 -75 -27 -132t-76.5 -88t-113.5 -31q-55 0 -97 23.5t-64 67.5v-264h-101v668h101v-80q22 44 64 68t97 24q63 0 112.5 -32zM410 117.5q36 44.5 36 126.5q0 83 -36.5 129t-101.5 46q-66 0 -101.5 -45t-35.5 -128t35.5 -128
t101.5 -45t102 44.5z" />
    <glyph glyph-name="thorn" unicode="&#xfe;" horiz-adv-x="591" 
d="M443.5 468.5q49.5 -31.5 77.5 -89.5t28 -135t-27.5 -134t-77 -87t-112.5 -30q-55 0 -97 23.5t-64 67.5v-264h-101v885h101v-297q22 44 64 68t97 24q62 0 111.5 -31.5zM410 118q36 45 36 126q0 82 -36 128.5t-102 46.5t-101.5 -45t-35.5 -128t35.5 -128t101.5 -45t102 45z
" />
    <glyph glyph-name="q" unicode="q" horiz-adv-x="591" 
d="M520 488v-668h-101v262q-22 -43 -63.5 -66t-96.5 -23q-64 0 -113.5 31t-76.5 88t-27 132q0 76 27.5 134t77 90t112.5 32q55 0 97 -24t64 -68v80h100zM384.5 118q35.5 45 35.5 128t-35.5 128t-101.5 45q-65 0 -102 -46.5t-37 -128.5t36.5 -126.5t102.5 -44.5t101.5 45z
" />
    <glyph glyph-name="r" unicode="r" horiz-adv-x="366" 
d="M367 415l-61 -6q-72 -7 -103.5 -44t-31.5 -94v-271h-101v488h98v-85q39 86 159 95l33 2z" />
    <glyph glyph-name="racute" unicode="&#x155;" horiz-adv-x="366" 
d="M367 415l-61 -6q-72 -7 -103.5 -44t-31.5 -94v-271h-101v488h98v-85q39 86 159 95l33 2zM253 552h-66l99 203h108z" />
    <glyph glyph-name="rcaron" unicode="&#x159;" horiz-adv-x="366" 
d="M367 415l-61 -6q-72 -7 -103.5 -44t-31.5 -94v-271h-101v488h98v-85q39 86 159 95l33 2zM288 755h86l-121 -203h-66l-121 203h86l68 -135z" />
    <glyph glyph-name="rcommaaccent" unicode="&#x157;" horiz-adv-x="366" 
d="M367 415l-61 -6q-72 -7 -103.5 -44t-31.5 -94v-271h-101v488h98v-85q39 86 159 95l33 2zM177 -70v-60q0 -42 -12 -74t-41 -60l-42 30q18 18 26 35t10 37h-54v92h113z" />
    <glyph glyph-name="uni0211" unicode="&#x211;" horiz-adv-x="366" 
d="M367 415l-61 -6q-72 -7 -103.5 -44t-31.5 -94v-271h-101v488h98v-85q39 86 159 95l33 2zM133 552l-78 203h84l42 -203h-48zM259 552l-78 203h84l42 -203h-48z" />
    <glyph glyph-name="uni1E5B" unicode="&#x1e5b;" horiz-adv-x="366" 
d="M367 415l-61 -6q-72 -7 -103.5 -44t-31.5 -94v-271h-101v488h98v-85q39 86 159 95l33 2zM68 -86h106v-101h-106v101z" />
    <glyph glyph-name="uni0213" unicode="&#x213;" horiz-adv-x="366" 
d="M367 415l-61 -6q-72 -7 -103.5 -44t-31.5 -94v-271h-101v488h98v-85q39 86 159 95l33 2zM324.5 700.5q46.5 -32.5 66.5 -98.5l-57 -24q-41 86 -114 86t-114 -86l-57 23q19 66 65.5 99t105.5 33q58 0 104.5 -32.5z" />
    <glyph glyph-name="uni1E5F" unicode="&#x1e5f;" horiz-adv-x="366" 
d="M367 415l-61 -6q-72 -7 -103.5 -44t-31.5 -94v-271h-101v488h98v-85q39 86 159 95l33 2zM-31 -170v67h304v-67h-304z" />
    <glyph glyph-name="s" unicode="s" horiz-adv-x="482" 
d="M39 55l31 73q75 -58 175 -58q49 0 75 16.5t26 46.5q0 26 -17.5 41t-60.5 25l-81 18q-65 15 -98 49t-33 86q0 66 53.5 107t140.5 41q52 0 99 -16.5t81 -46.5l-31 -71q-72 57 -149 57q-46 0 -72.5 -18t-26.5 -49q0 -25 16.5 -40.5t52.5 -23.5l83 -19q71 -16 104 -49.5
t33 -87.5q0 -66 -53.5 -104.5t-144.5 -38.5q-127 0 -203 62z" />
    <glyph glyph-name="sacute" unicode="&#x15b;" horiz-adv-x="482" 
d="M39 55l31 73q75 -58 175 -58q49 0 75 16.5t26 46.5q0 26 -17.5 41t-60.5 25l-81 18q-65 15 -98 49t-33 86q0 66 53.5 107t140.5 41q52 0 99 -16.5t81 -46.5l-31 -71q-72 57 -149 57q-46 0 -72.5 -18t-26.5 -49q0 -25 16.5 -40.5t52.5 -23.5l83 -19q71 -16 104 -49.5
t33 -87.5q0 -66 -53.5 -104.5t-144.5 -38.5q-127 0 -203 62zM283 552h-66l99 203h108z" />
    <glyph glyph-name="uni1E65" unicode="&#x1e65;" horiz-adv-x="482" 
d="M39 55l31 73q75 -58 175 -58q49 0 75 16.5t26 46.5q0 26 -17.5 41t-60.5 25l-81 18q-65 15 -98 49t-33 86q0 66 53.5 107t140.5 41q52 0 99 -16.5t81 -46.5l-31 -71q-72 57 -149 57q-46 0 -72.5 -18t-26.5 -49q0 -25 16.5 -40.5t52.5 -23.5l83 -19q71 -16 104 -49.5
t33 -87.5q0 -66 -53.5 -104.5t-144.5 -38.5q-127 0 -203 62zM291 552h-66l99 203h108zM95 754h116v-105h-116v105z" />
    <glyph glyph-name="scaron" unicode="&#x161;" horiz-adv-x="482" 
d="M39 55l31 73q75 -58 175 -58q49 0 75 16.5t26 46.5q0 26 -17.5 41t-60.5 25l-81 18q-65 15 -98 49t-33 86q0 66 53.5 107t140.5 41q52 0 99 -16.5t81 -46.5l-31 -71q-72 57 -149 57q-46 0 -72.5 -18t-26.5 -49q0 -25 16.5 -40.5t52.5 -23.5l83 -19q71 -16 104 -49.5
t33 -87.5q0 -66 -53.5 -104.5t-144.5 -38.5q-127 0 -203 62zM318 755h86l-121 -203h-66l-121 203h86l68 -135z" />
    <glyph glyph-name="uni1E67" unicode="&#x1e67;" horiz-adv-x="482" 
d="M39 55l31 73q75 -58 175 -58q49 0 75 16.5t26 46.5q0 26 -17.5 41t-60.5 25l-81 18q-65 15 -98 49t-33 86q0 66 53.5 107t140.5 41q52 0 99 -16.5t81 -46.5l-31 -71q-72 57 -149 57q-46 0 -72.5 -18t-26.5 -49q0 -25 16.5 -40.5t52.5 -23.5l83 -19q71 -16 104 -49.5
t33 -87.5q0 -66 -53.5 -104.5t-144.5 -38.5q-127 0 -203 62zM318 755h86l-121 -203h-66l-121 203h86l68 -135zM192 898h116v-105h-116v105z" />
    <glyph glyph-name="scedilla" unicode="&#x15f;" horiz-adv-x="482" 
d="M392.5 36q-47.5 -38 -130.5 -43l-5 -36q14 2 21 2q34 0 56 -17.5t22 -51.5q0 -37 -32 -60.5t-89 -23.5q-21 0 -46 5t-44 14l13 47q37 -14 76 -14q25 0 39 8t14 24q0 25 -35 25q-18 0 -42 -8l-20 17l8 71q-98 9 -159 60l31 73q75 -58 175 -58q49 0 75 16.5t26 46.5
q0 26 -17.5 41t-60.5 25l-81 18q-65 15 -98 49t-33 86q0 66 53.5 107t140.5 41q52 0 99 -16.5t81 -46.5l-31 -71q-72 57 -149 57q-46 0 -72.5 -18t-26.5 -49q0 -25 16.5 -40.5t52.5 -23.5l83 -19q71 -16 104 -49.5t33 -87.5q0 -62 -47.5 -100z" />
    <glyph glyph-name="scircumflex" unicode="&#x15d;" horiz-adv-x="482" 
d="M39 55l31 73q75 -58 175 -58q49 0 75 16.5t26 46.5q0 26 -17.5 41t-60.5 25l-81 18q-65 15 -98 49t-33 86q0 66 53.5 107t140.5 41q52 0 99 -16.5t81 -46.5l-31 -71q-72 57 -149 57q-46 0 -72.5 -18t-26.5 -49q0 -25 16.5 -40.5t52.5 -23.5l83 -19q71 -16 104 -49.5
t33 -87.5q0 -66 -53.5 -104.5t-144.5 -38.5q-127 0 -203 62zM182 552h-86l121 203h66l121 -203h-86l-68 135z" />
    <glyph glyph-name="scommaaccent" unicode="&#x219;" horiz-adv-x="482" 
d="M39 55l31 73q75 -58 175 -58q49 0 75 16.5t26 46.5q0 26 -17.5 41t-60.5 25l-81 18q-65 15 -98 49t-33 86q0 66 53.5 107t140.5 41q52 0 99 -16.5t81 -46.5l-31 -71q-72 57 -149 57q-46 0 -72.5 -18t-26.5 -49q0 -25 16.5 -40.5t52.5 -23.5l83 -19q71 -16 104 -49.5
t33 -87.5q0 -66 -53.5 -104.5t-144.5 -38.5q-127 0 -203 62zM296 -70v-60q0 -42 -12 -74t-41 -60l-42 30q18 18 26 35t10 37h-54v92h113z" />
    <glyph glyph-name="uni1E61" unicode="&#x1e61;" horiz-adv-x="482" 
d="M39 55l31 73q75 -58 175 -58q49 0 75 16.5t26 46.5q0 26 -17.5 41t-60.5 25l-81 18q-65 15 -98 49t-33 86q0 66 53.5 107t140.5 41q52 0 99 -16.5t81 -46.5l-31 -71q-72 57 -149 57q-46 0 -72.5 -18t-26.5 -49q0 -25 16.5 -40.5t52.5 -23.5l83 -19q71 -16 104 -49.5
t33 -87.5q0 -66 -53.5 -104.5t-144.5 -38.5q-127 0 -203 62zM192 706h116v-105h-116v105z" />
    <glyph glyph-name="uni1E63" unicode="&#x1e63;" horiz-adv-x="482" 
d="M39 55l31 73q75 -58 175 -58q49 0 75 16.5t26 46.5q0 26 -17.5 41t-60.5 25l-81 18q-65 15 -98 49t-33 86q0 66 53.5 107t140.5 41q52 0 99 -16.5t81 -46.5l-31 -71q-72 57 -149 57q-46 0 -72.5 -18t-26.5 -49q0 -25 16.5 -40.5t52.5 -23.5l83 -19q71 -16 104 -49.5
t33 -87.5q0 -66 -53.5 -104.5t-144.5 -38.5q-127 0 -203 62zM187 -86h106v-101h-106v101z" />
    <glyph glyph-name="uni1E69" unicode="&#x1e69;" horiz-adv-x="482" 
d="M39 55l31 73q75 -58 175 -58q49 0 75 16.5t26 46.5q0 26 -17.5 41t-60.5 25l-81 18q-65 15 -98 49t-33 86q0 66 53.5 107t140.5 41q52 0 99 -16.5t81 -46.5l-31 -71q-72 57 -149 57q-46 0 -72.5 -18t-26.5 -49q0 -25 16.5 -40.5t52.5 -23.5l83 -19q71 -16 104 -49.5
t33 -87.5q0 -66 -53.5 -104.5t-144.5 -38.5q-127 0 -203 62zM187 -86h106v-101h-106v101zM192 706h116v-105h-116v105z" />
    <glyph glyph-name="germandbls" unicode="&#xdf;" horiz-adv-x="634" 
d="M70 467q0 116 63 180t178 64q84 0 131.5 -36t47.5 -100q0 -41 -20 -70t-56 -62q-27 -26 -39.5 -42.5t-12.5 -35.5q0 -28 23.5 -43t74.5 -34q45 -15 74.5 -30.5t50.5 -43.5t21 -72q0 -67 -51.5 -108t-136.5 -41q-54 0 -104 16.5t-85 45.5l31 73q80 -57 159 -57
q44 1 68 17.5t24 47.5q0 30 -25 46.5t-77 33.5q-46 16 -74.5 30t-48.5 40t-20 68q0 36 18 62.5t53 60.5q30 29 44 48.5t14 43.5q0 31 -22.5 48t-64.5 17q-65 0 -101 -40t-36 -113v-481h-101v467z" />
    <glyph glyph-name="t" unicode="t" horiz-adv-x="353" 
d="M346 74l-5 -77q-25 -4 -52 -4q-95 0 -141.5 46.5t-46.5 134.5v236h-95v78h95v147h101v-147h134v-78h-134v-232q0 -107 99 -107q23 0 45 3z" />
    <glyph glyph-name="tbar" unicode="&#x167;" horiz-adv-x="363" 
d="M351 74l-5 -77q-25 -4 -52 -4q-95 0 -141.5 46.5t-46.5 134.5v68h-75v74h75v94h-95v78h95v147h101v-147h134v-78h-134v-94h114v-74h-114v-64q0 -107 99 -107q23 0 45 3z" />
    <glyph glyph-name="tcaron" unicode="&#x165;" horiz-adv-x="353" 
d="M335 705l-28 -171h-56v171h84zM346 74l-5 -77q-25 -4 -52 -4q-95 0 -141.5 46.5t-46.5 134.5v236h-95v78h95v147h101v-147h134v-78h-134v-232q0 -107 99 -107q23 0 45 3z" />
    <glyph glyph-name="uni0163" unicode="&#x163;" horiz-adv-x="353" 
d="M320 -58.5q22 -17.5 22 -51.5q0 -37 -32 -60.5t-89 -23.5q-21 0 -46 5t-44 14l13 47q37 -14 76 -14q25 0 39 8t14 24q0 25 -35 25q-18 0 -42 -8l-20 17l10 89q-85 40 -85 161v236h-95v78h95v147h101v-147h134v-78h-134v-232q0 -107 99 -107q23 0 45 3l-5 -77
q-25 -4 -52 -4q-15 0 -41 2l-5 -38q14 2 21 2q34 0 56 -17.5z" />
    <glyph glyph-name="uni021B" unicode="&#x21b;" horiz-adv-x="353" 
d="M346 74l-5 -77q-25 -4 -52 -4q-95 0 -141.5 46.5t-46.5 134.5v236h-95v78h95v147h101v-147h134v-78h-134v-232q0 -107 99 -107q23 0 45 3zM282 -70v-60q0 -42 -12 -74t-41 -60l-42 30q18 18 26 35t10 37h-54v92h113z" />
    <glyph glyph-name="uni1E97" unicode="&#x1e97;" horiz-adv-x="353" 
d="M346 74l-5 -77q-25 -4 -52 -4q-95 0 -141.5 46.5t-46.5 134.5v236h-95v78h95v147h101v-147h134v-78h-134v-232q0 -107 99 -107q23 0 45 3zM11 822h103v-99h-103v99zM188 822h103v-99h-103v99z" />
    <glyph glyph-name="uni1E6D" unicode="&#x1e6d;" horiz-adv-x="353" 
d="M346 74l-5 -77q-25 -4 -52 -4q-95 0 -141.5 46.5t-46.5 134.5v236h-95v78h95v147h101v-147h134v-78h-134v-232q0 -107 99 -107q23 0 45 3zM173 -86h106v-101h-106v101z" />
    <glyph glyph-name="uni1E6F" unicode="&#x1e6f;" horiz-adv-x="353" 
d="M346 74l-5 -77q-25 -4 -52 -4q-95 0 -141.5 46.5t-46.5 134.5v236h-95v78h95v147h101v-147h134v-78h-134v-232q0 -107 99 -107q23 0 45 3zM74 -170v67h304v-67h-304z" />
    <glyph glyph-name="u" unicode="u" horiz-adv-x="569" 
d="M498 488v-488h-98v79q-23 -42 -63.5 -64t-90.5 -22q-178 0 -178 196v299h101v-298q0 -59 24 -87t74 -28q59 0 94.5 38t35.5 101v274h101z" />
    <glyph glyph-name="uacute" unicode="&#xfa;" horiz-adv-x="569" 
d="M498 488v-488h-98v79q-23 -42 -63.5 -64t-90.5 -22q-178 0 -178 196v299h101v-298q0 -59 24 -87t74 -28q59 0 94.5 38t35.5 101v274h101zM317 552h-66l99 203h108z" />
    <glyph glyph-name="ubreve" unicode="&#x16d;" horiz-adv-x="569" 
d="M498 488v-488h-98v79q-23 -42 -63.5 -64t-90.5 -22q-178 0 -178 196v299h101v-298q0 -59 24 -87t74 -28q59 0 94.5 38t35.5 101v274h101zM179 613q-46 33 -66 99l57 24q22 -46 50 -66t64 -20t64 20t50 66l57 -24q-19 -66 -65.5 -99t-105.5 -33t-105 33z" />
    <glyph glyph-name="ucircumflex" unicode="&#xfb;" horiz-adv-x="569" 
d="M498 488v-488h-98v79q-23 -42 -63.5 -64t-90.5 -22q-178 0 -178 196v299h101v-298q0 -59 24 -87t74 -28q59 0 94.5 38t35.5 101v274h101zM216 552h-86l121 203h66l121 -203h-86l-68 135z" />
    <glyph glyph-name="uni0215" unicode="&#x215;" horiz-adv-x="569" 
d="M498 488v-488h-98v79q-23 -42 -63.5 -64t-90.5 -22q-178 0 -178 196v299h101v-298q0 -59 24 -87t74 -28q59 0 94.5 38t35.5 101v274h101zM197 552l-78 203h84l42 -203h-48zM323 552l-78 203h84l42 -203h-48z" />
    <glyph glyph-name="udieresis" unicode="&#xfc;" horiz-adv-x="569" 
d="M498 488v-488h-98v79q-23 -42 -63.5 -64t-90.5 -22q-178 0 -178 196v299h101v-298q0 -59 24 -87t74 -28q59 0 94.5 38t35.5 101v274h101zM144 703h103v-99h-103v99zM321 703h103v-99h-103v99z" />
    <glyph glyph-name="uni1EE5" unicode="&#x1ee5;" horiz-adv-x="569" 
d="M498 488v-488h-98v79q-23 -42 -63.5 -64t-90.5 -22q-178 0 -178 196v299h101v-298q0 -59 24 -87t74 -28q59 0 94.5 38t35.5 101v274h101zM231 -86h106v-101h-106v101z" />
    <glyph glyph-name="ugrave" unicode="&#xf9;" horiz-adv-x="569" 
d="M498 488v-488h-98v79q-23 -42 -63.5 -64t-90.5 -22q-178 0 -178 196v299h101v-298q0 -59 24 -87t74 -28q59 0 94.5 38t35.5 101v274h101zM251 552l-141 203h108l99 -203h-66z" />
    <glyph glyph-name="uni1EE7" unicode="&#x1ee7;" horiz-adv-x="569" 
d="M498 488v-488h-98v79q-23 -42 -63.5 -64t-90.5 -22q-178 0 -178 196v299h101v-298q0 -59 24 -87t74 -28q59 0 94.5 38t35.5 101v274h101zM315 552h-59v27q0 21 10 35.5t28 30.5q13 12 18.5 19t5.5 16q0 11 -10 17.5t-28 6.5q-26 0 -56 -11l-17 48q40 17 82 17
q49 0 76.5 -20t27.5 -50q0 -23 -11 -37.5t-32 -30.5q-18 -14 -26.5 -24.5t-8.5 -25.5v-18z" />
    <glyph glyph-name="uhorn" unicode="&#x1b0;" horiz-adv-x="586" 
d="M614 616v-30q0 -60 -31 -99t-85 -49v-438h-98v79q-23 -42 -63.5 -64t-90.5 -22q-178 0 -178 196v299h101v-298q0 -59 24 -87t74 -28q59 0 94.5 38t35.5 101v274h29q53 0 76 26t23 86v16h89z" />
    <glyph glyph-name="uni1EE9" unicode="&#x1ee9;" horiz-adv-x="586" 
d="M614 616v-30q0 -60 -31 -99t-85 -49v-438h-98v79q-23 -42 -63.5 -64t-90.5 -22q-178 0 -178 196v299h101v-298q0 -59 24 -87t74 -28q59 0 94.5 38t35.5 101v274h29q53 0 76 26t23 86v16h89zM317 552h-66l99 203h108z" />
    <glyph glyph-name="uni1EF1" unicode="&#x1ef1;" horiz-adv-x="586" 
d="M614 616v-30q0 -60 -31 -99t-85 -49v-438h-98v79q-23 -42 -63.5 -64t-90.5 -22q-178 0 -178 196v299h101v-298q0 -59 24 -87t74 -28q59 0 94.5 38t35.5 101v274h29q53 0 76 26t23 86v16h89zM231 -86h106v-101h-106v101z" />
    <glyph glyph-name="uni1EEB" unicode="&#x1eeb;" horiz-adv-x="586" 
d="M614 616v-30q0 -60 -31 -99t-85 -49v-438h-98v79q-23 -42 -63.5 -64t-90.5 -22q-178 0 -178 196v299h101v-298q0 -59 24 -87t74 -28q59 0 94.5 38t35.5 101v274h29q53 0 76 26t23 86v16h89zM251 552l-141 203h108l99 -203h-66z" />
    <glyph glyph-name="uni1EED" unicode="&#x1eed;" horiz-adv-x="586" 
d="M614 616v-30q0 -60 -31 -99t-85 -49v-438h-98v79q-23 -42 -63.5 -64t-90.5 -22q-178 0 -178 196v299h101v-298q0 -59 24 -87t74 -28q59 0 94.5 38t35.5 101v274h29q53 0 76 26t23 86v16h89zM315 552h-59v27q0 21 10 35.5t28 30.5q13 12 18.5 19t5.5 16q0 11 -10 17.5
t-28 6.5q-26 0 -56 -11l-17 48q40 17 82 17q49 0 76.5 -20t27.5 -50q0 -23 -11 -37.5t-32 -30.5q-18 -14 -26.5 -24.5t-8.5 -25.5v-18z" />
    <glyph glyph-name="uni1EEF" unicode="&#x1eef;" horiz-adv-x="586" 
d="M614 616v-30q0 -60 -31 -99t-85 -49v-438h-98v79q-23 -42 -63.5 -64t-90.5 -22q-178 0 -178 196v299h101v-298q0 -59 24 -87t74 -28q59 0 94.5 38t35.5 101v274h29q53 0 76 26t23 86v16h89zM145 686q26 32 69 32q20 0 37.5 -8t44.5 -24q23 -13 34.5 -18.5t22.5 -5.5
q20 0 32 15t13 38h51q0 -59 -26 -91t-69 -32q-20 0 -38.5 8t-43.5 23q-19 12 -32 18t-25 6q-20 0 -32 -14.5t-13 -37.5h-51q0 59 26 91z" />
    <glyph glyph-name="uhungarumlaut" unicode="&#x171;" horiz-adv-x="569" 
d="M498 488v-488h-98v79q-23 -42 -63.5 -64t-90.5 -22q-178 0 -178 196v299h101v-298q0 -59 24 -87t74 -28q59 0 94.5 38t35.5 101v274h101zM245 552h-48l42 203h84zM371 552h-48l42 203h84z" />
    <glyph glyph-name="uni0217" unicode="&#x217;" horiz-adv-x="569" 
d="M498 488v-488h-98v79q-23 -42 -63.5 -64t-90.5 -22q-178 0 -178 196v299h101v-298q0 -59 24 -87t74 -28q59 0 94.5 38t35.5 101v274h101zM388.5 700.5q46.5 -32.5 66.5 -98.5l-57 -24q-41 86 -114 86t-114 -86l-57 23q19 66 65.5 99t105.5 33q58 0 104.5 -32.5z" />
    <glyph glyph-name="umacron" unicode="&#x16b;" horiz-adv-x="569" 
d="M498 488v-488h-98v79q-23 -42 -63.5 -64t-90.5 -22q-178 0 -178 196v299h101v-298q0 -59 24 -87t74 -28q59 0 94.5 38t35.5 101v274h101zM132 618v70h304v-70h-304z" />
    <glyph glyph-name="uni1E7B" unicode="&#x1e7b;" horiz-adv-x="569" 
d="M498 488v-488h-98v79q-23 -42 -63.5 -64t-90.5 -22q-178 0 -178 196v299h101v-298q0 -59 24 -87t74 -28q59 0 94.5 38t35.5 101v274h101zM132 618v70h304v-70h-304zM144 895h103v-99h-103v99zM321 895h103v-99h-103v99z" />
    <glyph glyph-name="uogonek" unicode="&#x173;" horiz-adv-x="569" 
d="M541 -172q-39 -22 -90 -22q-53 0 -86.5 30t-33.5 77q0 34 18 62t51 46v58q-23 -42 -63.5 -64t-90.5 -22q-178 0 -178 196v299h101v-298q0 -59 24 -87t74 -28q59 0 94.5 38t35.5 101v274h101v-488h-6q-39 0 -63.5 -20.5t-24.5 -53.5q0 -29 16.5 -44.5t47.5 -15.5
q24 0 56 16z" />
    <glyph glyph-name="uring" unicode="&#x16f;" horiz-adv-x="569" 
d="M498 488v-488h-98v79q-23 -42 -63.5 -64t-90.5 -22q-178 0 -178 196v299h101v-298q0 -59 24 -87t74 -28q59 0 94.5 38t35.5 101v274h101zM210.5 581.5q-30.5 29.5 -30.5 72.5q0 42 30.5 71.5t73.5 29.5t73.5 -29.5t30.5 -71.5q0 -43 -30.5 -72.5t-73.5 -29.5t-73.5 29.5z
M317.5 619.5q13.5 14.5 13.5 34.5t-13.5 34t-33.5 14t-33.5 -14t-13.5 -34t13.5 -34.5t33.5 -14.5t33.5 14.5z" />
    <glyph glyph-name="utilde" unicode="&#x169;" horiz-adv-x="569" 
d="M498 488v-488h-98v79q-23 -42 -63.5 -64t-90.5 -22q-178 0 -178 196v299h101v-298q0 -59 24 -87t74 -28q59 0 94.5 38t35.5 101v274h101zM145 686q26 32 69 32q20 0 37.5 -8t44.5 -24q23 -13 34.5 -18.5t22.5 -5.5q20 0 32 15t13 38h51q0 -59 -26 -91t-69 -32
q-20 0 -38.5 8t-43.5 23q-19 12 -32 18t-25 6q-20 0 -32 -14.5t-13 -37.5h-51q0 59 26 91z" />
    <glyph glyph-name="uni1E79" unicode="&#x1e79;" horiz-adv-x="569" 
d="M498 488v-488h-98v79q-23 -42 -63.5 -64t-90.5 -22q-178 0 -178 196v299h101v-298q0 -59 24 -87t74 -28q59 0 94.5 38t35.5 101v274h101zM145 686q26 32 69 32q20 0 37.5 -8t44.5 -24q23 -13 34.5 -18.5t22.5 -5.5q20 0 32 15t13 38h51q0 -59 -26 -91t-69 -32
q-20 0 -38.5 8t-43.5 23q-19 12 -32 18t-25 6q-20 0 -32 -14.5t-13 -37.5h-51q0 59 26 91zM317 744h-66l99 203h108z" />
    <glyph glyph-name="v" unicode="v" horiz-adv-x="520" 
d="M416 487h101l-212 -487h-91l-210 487h106l152 -373z" />
    <glyph glyph-name="w" unicode="w" horiz-adv-x="848" 
d="M731 488h100l-187 -488h-91l-129 349l-129 -349h-92l-186 488h105l132 -367l133 367h79l133 -369z" />
    <glyph glyph-name="wacute" unicode="&#x1e83;" horiz-adv-x="848" 
d="M731 488h100l-187 -488h-91l-129 349l-129 -349h-92l-186 488h105l132 -367l133 367h79l133 -369zM457 552h-66l99 203h108z" />
    <glyph glyph-name="wcircumflex" unicode="&#x175;" horiz-adv-x="848" 
d="M731 488h100l-187 -488h-91l-129 349l-129 -349h-92l-186 488h105l132 -367l133 367h79l133 -369zM356 552h-86l121 203h66l121 -203h-86l-68 135z" />
    <glyph glyph-name="wdieresis" unicode="&#x1e85;" horiz-adv-x="848" 
d="M731 488h100l-187 -488h-91l-129 349l-129 -349h-92l-186 488h105l132 -367l133 367h79l133 -369zM284 703h103v-99h-103v99zM461 703h103v-99h-103v99z" />
    <glyph glyph-name="wgrave" unicode="&#x1e81;" horiz-adv-x="848" 
d="M731 488h100l-187 -488h-91l-129 349l-129 -349h-92l-186 488h105l132 -367l133 367h79l133 -369zM391 552l-141 203h108l99 -203h-66z" />
    <glyph glyph-name="x" unicode="x" horiz-adv-x="525" 
d="M321 251l204 -251h-121l-142 178l-141 -178h-121l204 251l-193 237h122l129 -165l130 165h121z" />
    <glyph glyph-name="y" unicode="y" horiz-adv-x="520" 
d="M416 487h101l-291 -667h-102l85 192l-205 475h106l152 -373z" />
    <glyph glyph-name="yacute" unicode="&#xfd;" horiz-adv-x="520" 
d="M416 487h101l-291 -667h-102l85 192l-205 475h106l152 -373zM293 552h-66l99 203h108z" />
    <glyph glyph-name="ycircumflex" unicode="&#x177;" horiz-adv-x="520" 
d="M416 487h101l-291 -667h-102l85 192l-205 475h106l152 -373zM192 552h-86l121 203h66l121 -203h-86l-68 135z" />
    <glyph glyph-name="ydieresis" unicode="&#xff;" horiz-adv-x="520" 
d="M416 487h101l-291 -667h-102l85 192l-205 475h106l152 -373zM120 703h103v-99h-103v99zM297 703h103v-99h-103v99z" />
    <glyph glyph-name="uni1E8F" unicode="&#x1e8f;" horiz-adv-x="520" 
d="M416 487h101l-291 -667h-102l85 192l-205 475h106l152 -373zM202 706h116v-105h-116v105z" />
    <glyph glyph-name="uni1EF5" unicode="&#x1ef5;" horiz-adv-x="520" 
d="M416 487h101l-291 -667h-102l85 192l-205 475h106l152 -373zM346 -86h106v-101h-106v101z" />
    <glyph glyph-name="ygrave" unicode="&#x1ef3;" horiz-adv-x="520" 
d="M416 487h101l-291 -667h-102l85 192l-205 475h106l152 -373zM227 552l-141 203h108l99 -203h-66z" />
    <glyph glyph-name="uni1EF7" unicode="&#x1ef7;" horiz-adv-x="520" 
d="M416 487h101l-291 -667h-102l85 192l-205 475h106l152 -373zM291 552h-59v27q0 21 10 35.5t28 30.5q13 12 18.5 19t5.5 16q0 11 -10 17.5t-28 6.5q-26 0 -56 -11l-17 48q40 17 82 17q49 0 76.5 -20t27.5 -50q0 -23 -11 -37.5t-32 -30.5q-18 -14 -26.5 -24.5t-8.5 -25.5
v-18z" />
    <glyph glyph-name="uni0233" unicode="&#x233;" horiz-adv-x="520" 
d="M416 487h101l-291 -667h-102l85 192l-205 475h106l152 -373zM108 618v70h304v-70h-304z" />
    <glyph glyph-name="uni1EF9" unicode="&#x1ef9;" horiz-adv-x="520" 
d="M416 487h101l-291 -667h-102l85 192l-205 475h106l152 -373zM121 686q26 32 69 32q20 0 37.5 -8t44.5 -24q23 -13 34.5 -18.5t22.5 -5.5q20 0 32 15t13 38h51q0 -59 -26 -91t-69 -32q-20 0 -38.5 8t-43.5 23q-19 12 -32 18t-25 6q-20 0 -32 -14.5t-13 -37.5h-51
q0 59 26 91z" />
    <glyph glyph-name="z" unicode="z" horiz-adv-x="506" 
d="M170 78h296v-78h-418v70l286 340h-278v78h400v-71z" />
    <glyph glyph-name="zacute" unicode="&#x17a;" horiz-adv-x="506" 
d="M170 78h296v-78h-418v70l286 340h-278v78h400v-71zM291 552h-66l99 203h108z" />
    <glyph glyph-name="zcaron" unicode="&#x17e;" horiz-adv-x="506" 
d="M170 78h296v-78h-418v70l286 340h-278v78h400v-71zM326 755h86l-121 -203h-66l-121 203h86l68 -135z" />
    <glyph glyph-name="zdotaccent" unicode="&#x17c;" horiz-adv-x="506" 
d="M170 78h296v-78h-418v70l286 340h-278v78h400v-71zM200 706h116v-105h-116v105z" />
    <glyph glyph-name="uni1E93" unicode="&#x1e93;" horiz-adv-x="506" 
d="M170 78h296v-78h-418v70l286 340h-278v78h400v-71zM198 -86h106v-101h-106v101z" />
    <glyph glyph-name="iacute_j.loclNLD" horiz-adv-x="484" 
d="M70 0v488h101v-488h-101zM154 552h-66l99 203h108zM413 12q0 -95 -45.5 -141t-146.5 -52l-46 -3l-8 75l48 3q49 4 73 29t24 74v491h101v-476zM396 552h-66l99 203h108z" />
    <glyph glyph-name="a.ss01" horiz-adv-x="591" 
d="M520 488v-488h-100v84q-22 -44 -64 -67.5t-97 -23.5q-64 0 -113.5 31t-76.5 88t-27 132q0 76 27.5 134t77 90t112.5 32q55 0 97 -24t64 -68v80h100zM384.5 118q35.5 45 35.5 128t-35.5 128t-101.5 45q-65 0 -102 -46.5t-37 -128.5t36.5 -126.5t102.5 -44.5t101.5 45z" />
    <glyph glyph-name="aacute.ss01" horiz-adv-x="591" 
d="M520 488v-488h-100v84q-22 -44 -64 -67.5t-97 -23.5q-64 0 -113.5 31t-76.5 88t-27 132q0 76 27.5 134t77 90t112.5 32q55 0 97 -24t64 -68v80h100zM384.5 118q35.5 45 35.5 128t-35.5 128t-101.5 45q-65 0 -102 -46.5t-37 -128.5t36.5 -126.5t102.5 -44.5t101.5 45z
M329 552h-66l99 203h108z" />
    <glyph glyph-name="abreve.ss01" horiz-adv-x="591" 
d="M520 488v-488h-100v84q-22 -44 -64 -67.5t-97 -23.5q-64 0 -113.5 31t-76.5 88t-27 132q0 76 27.5 134t77 90t112.5 32q55 0 97 -24t64 -68v80h100zM384.5 118q35.5 45 35.5 128t-35.5 128t-101.5 45q-65 0 -102 -46.5t-37 -128.5t36.5 -126.5t102.5 -44.5t101.5 45z
M191 613q-46 33 -66 99l57 24q22 -46 50 -66t64 -20t64 20t50 66l57 -24q-19 -66 -65.5 -99t-105.5 -33t-105 33z" />
    <glyph glyph-name="uni1EAF.ss01" horiz-adv-x="591" 
d="M520 488v-488h-100v84q-22 -44 -64 -67.5t-97 -23.5q-64 0 -113.5 31t-76.5 88t-27 132q0 76 27.5 134t77 90t112.5 32q55 0 97 -24t64 -68v80h100zM384.5 118q35.5 45 35.5 128t-35.5 128t-101.5 45q-65 0 -102 -46.5t-37 -128.5t36.5 -126.5t102.5 -44.5t101.5 45z
M328 656h-64l100 142h98zM193.5 573q-43.5 26 -64.5 81l49 21q38 -67 118 -67t118 67l49 -21q-22 -55 -65.5 -81t-101.5 -26q-59 0 -102.5 26z" />
    <glyph glyph-name="uni1EB7.ss01" horiz-adv-x="591" 
d="M520 488v-488h-100v84q-22 -44 -64 -67.5t-97 -23.5q-64 0 -113.5 31t-76.5 88t-27 132q0 76 27.5 134t77 90t112.5 32q55 0 97 -24t64 -68v80h100zM384.5 118q35.5 45 35.5 128t-35.5 128t-101.5 45q-65 0 -102 -46.5t-37 -128.5t36.5 -126.5t102.5 -44.5t101.5 45z
M243 -86h106v-101h-106v101zM191 613q-46 33 -66 99l57 24q22 -46 50 -66t64 -20t64 20t50 66l57 -24q-19 -66 -65.5 -99t-105.5 -33t-105 33z" />
    <glyph glyph-name="uni1EB1.ss01" horiz-adv-x="591" 
d="M520 488v-488h-100v84q-22 -44 -64 -67.5t-97 -23.5q-64 0 -113.5 31t-76.5 88t-27 132q0 76 27.5 134t77 90t112.5 32q55 0 97 -24t64 -68v80h100zM384.5 118q35.5 45 35.5 128t-35.5 128t-101.5 45q-65 0 -102 -46.5t-37 -128.5t36.5 -126.5t102.5 -44.5t101.5 45z
M264 656l-134 142h98l100 -142h-64zM194.5 573q-43.5 26 -65.5 81l49 21q38 -67 118 -67t118 67l49 -21q-21 -55 -64.5 -81t-102.5 -26q-58 0 -101.5 26z" />
    <glyph glyph-name="uni1EB3.ss01" horiz-adv-x="591" 
d="M520 488v-488h-100v84q-22 -44 -64 -67.5t-97 -23.5q-64 0 -113.5 31t-76.5 88t-27 132q0 76 27.5 134t77 90t112.5 32q55 0 97 -24t64 -68v80h100zM384.5 118q35.5 45 35.5 128t-35.5 128t-101.5 45q-65 0 -102 -46.5t-37 -128.5t36.5 -126.5t102.5 -44.5t101.5 45z
M326 657h-59v17q0 18 11.5 27t31.5 18q23 9 23 17t-10 12.5t-28 4.5q-28 0 -60 -12l-16 45q43 17 85 17q47 0 74 -17t27 -45q0 -19 -12 -28.5t-34 -18.5q-16 -7 -24.5 -13t-8.5 -16v-8zM194.5 573q-43.5 26 -65.5 81l49 21q38 -67 118 -67t118 67l49 -21q-21 -55 -64.5 -81
t-102.5 -26q-58 0 -101.5 26z" />
    <glyph glyph-name="uni1EB5.ss01" horiz-adv-x="591" 
d="M520 488v-488h-100v84q-22 -44 -64 -67.5t-97 -23.5q-64 0 -113.5 31t-76.5 88t-27 132q0 76 27.5 134t77 90t112.5 32q55 0 97 -24t64 -68v80h100zM384.5 118q35.5 45 35.5 128t-35.5 128t-101.5 45q-65 0 -102 -46.5t-37 -128.5t36.5 -126.5t102.5 -44.5t101.5 45z
M158 776q27 29 68 29q20 0 38.5 -7t43.5 -20q15 -8 30.5 -14t26.5 -6q20 0 32 12.5t13 31.5h51q0 -46 -27 -75t-68 -29q-20 0 -38.5 7t-43.5 20q-15 8 -30.5 14t-26.5 6q-20 0 -32 -12.5t-13 -31.5h-51q0 46 27 75zM194.5 573q-43.5 26 -65.5 81l49 21q38 -67 118 -67
t118 67l49 -21q-21 -55 -64.5 -81t-102.5 -26q-58 0 -101.5 26z" />
    <glyph glyph-name="uni01CE.ss01" horiz-adv-x="591" 
d="M520 488v-488h-100v84q-22 -44 -64 -67.5t-97 -23.5q-64 0 -113.5 31t-76.5 88t-27 132q0 76 27.5 134t77 90t112.5 32q55 0 97 -24t64 -68v80h100zM384.5 118q35.5 45 35.5 128t-35.5 128t-101.5 45q-65 0 -102 -46.5t-37 -128.5t36.5 -126.5t102.5 -44.5t101.5 45z
M364 755h86l-121 -203h-66l-121 203h86l68 -135z" />
    <glyph glyph-name="acircumflex.ss01" horiz-adv-x="591" 
d="M520 488v-488h-100v84q-22 -44 -64 -67.5t-97 -23.5q-64 0 -113.5 31t-76.5 88t-27 132q0 76 27.5 134t77 90t112.5 32q55 0 97 -24t64 -68v80h100zM384.5 118q35.5 45 35.5 128t-35.5 128t-101.5 45q-65 0 -102 -46.5t-37 -128.5t36.5 -126.5t102.5 -44.5t101.5 45z
M228 552h-86l121 203h66l121 -203h-86l-68 135z" />
    <glyph glyph-name="uni1EA5.ss01" horiz-adv-x="591" 
d="M520 488v-488h-100v84q-22 -44 -64 -67.5t-97 -23.5q-64 0 -113.5 31t-76.5 88t-27 132q0 76 27.5 134t77 90t112.5 32q55 0 97 -24t64 -68v80h100zM384.5 118q35.5 45 35.5 128t-35.5 128t-101.5 45q-65 0 -102 -46.5t-37 -128.5t36.5 -126.5t102.5 -44.5t101.5 45z
M440 656h-57l86 142h96zM225 552h-83l122 145h64l122 -145h-83l-71 91z" />
    <glyph glyph-name="uni1EAD.ss01" horiz-adv-x="591" 
d="M520 488v-488h-100v84q-22 -44 -64 -67.5t-97 -23.5q-64 0 -113.5 31t-76.5 88t-27 132q0 76 27.5 134t77 90t112.5 32q55 0 97 -24t64 -68v80h100zM384.5 118q35.5 45 35.5 128t-35.5 128t-101.5 45q-65 0 -102 -46.5t-37 -128.5t36.5 -126.5t102.5 -44.5t101.5 45z
M243 -86h106v-101h-106v101zM228 552h-86l121 203h66l121 -203h-86l-68 135z" />
    <glyph glyph-name="uni1EA7.ss01" horiz-adv-x="591" 
d="M520 488v-488h-100v84q-22 -44 -64 -67.5t-97 -23.5q-64 0 -113.5 31t-76.5 88t-27 132q0 76 27.5 134t77 90t112.5 32q55 0 97 -24t64 -68v80h100zM384.5 118q35.5 45 35.5 128t-35.5 128t-101.5 45q-65 0 -102 -46.5t-37 -128.5t36.5 -126.5t102.5 -44.5t101.5 45z
M426 656l-115 142h96l75 -142h-56zM225 552h-83l122 145h64l122 -145h-83l-71 91z" />
    <glyph glyph-name="uni1EA9.ss01" horiz-adv-x="591" 
d="M520 488v-488h-100v84q-22 -44 -64 -67.5t-97 -23.5q-64 0 -113.5 31t-76.5 88t-27 132q0 76 27.5 134t77 90t112.5 32q55 0 97 -24t64 -68v80h100zM384.5 118q35.5 45 35.5 128t-35.5 128t-101.5 45q-65 0 -102 -46.5t-37 -128.5t36.5 -126.5t102.5 -44.5t101.5 45z
M442 657h-60v17q0 18 11.5 27t32.5 18q23 9 23 17t-10 12.5t-28 4.5q-29 0 -60 -12l-16 45q43 17 85 17q47 0 74 -17t27 -45q0 -19 -12 -28.5t-34 -18.5q-16 -7 -24.5 -13t-8.5 -16v-8zM225 552h-83l122 145h64l122 -145h-83l-71 91z" />
    <glyph glyph-name="uni1EAB.ss01" horiz-adv-x="591" 
d="M520 488v-488h-100v84q-22 -44 -64 -67.5t-97 -23.5q-64 0 -113.5 31t-76.5 88t-27 132q0 76 27.5 134t77 90t112.5 32q55 0 97 -24t64 -68v80h100zM384.5 118q35.5 45 35.5 128t-35.5 128t-101.5 45q-65 0 -102 -46.5t-37 -128.5t36.5 -126.5t102.5 -44.5t101.5 45z
M158 784.5q27 28.5 68 28.5q20 0 38 -6t44 -17q15 -7 30.5 -12t26.5 -5q20 0 32 11.5t13 28.5h51q0 -43 -27 -71.5t-68 -28.5q-20 0 -38 6t-44 17q-15 7 -30.5 12t-26.5 5q-20 0 -32 -11.5t-13 -28.5h-51q0 43 27 71.5zM225 552h-83l122 145h64l122 -145h-83l-71 91z" />
    <glyph glyph-name="uni0201.ss01" horiz-adv-x="591" 
d="M520 488v-488h-100v84q-22 -44 -64 -67.5t-97 -23.5q-64 0 -113.5 31t-76.5 88t-27 132q0 76 27.5 134t77 90t112.5 32q55 0 97 -24t64 -68v80h100zM384.5 118q35.5 45 35.5 128t-35.5 128t-101.5 45q-65 0 -102 -46.5t-37 -128.5t36.5 -126.5t102.5 -44.5t101.5 45z
M209 552l-78 203h84l42 -203h-48zM335 552l-78 203h84l42 -203h-48z" />
    <glyph glyph-name="adieresis.ss01" horiz-adv-x="591" 
d="M520 488v-488h-100v84q-22 -44 -64 -67.5t-97 -23.5q-64 0 -113.5 31t-76.5 88t-27 132q0 76 27.5 134t77 90t112.5 32q55 0 97 -24t64 -68v80h100zM384.5 118q35.5 45 35.5 128t-35.5 128t-101.5 45q-65 0 -102 -46.5t-37 -128.5t36.5 -126.5t102.5 -44.5t101.5 45z
M156 703h103v-99h-103v99zM333 703h103v-99h-103v99z" />
    <glyph glyph-name="uni0227.ss01" horiz-adv-x="591" 
d="M520 488v-488h-100v84q-22 -44 -64 -67.5t-97 -23.5q-64 0 -113.5 31t-76.5 88t-27 132q0 76 27.5 134t77 90t112.5 32q55 0 97 -24t64 -68v80h100zM384.5 118q35.5 45 35.5 128t-35.5 128t-101.5 45q-65 0 -102 -46.5t-37 -128.5t36.5 -126.5t102.5 -44.5t101.5 45z
M238 706h116v-105h-116v105z" />
    <glyph glyph-name="uni1EA1.ss01" horiz-adv-x="591" 
d="M520 488v-488h-100v84q-22 -44 -64 -67.5t-97 -23.5q-64 0 -113.5 31t-76.5 88t-27 132q0 76 27.5 134t77 90t112.5 32q55 0 97 -24t64 -68v80h100zM384.5 118q35.5 45 35.5 128t-35.5 128t-101.5 45q-65 0 -102 -46.5t-37 -128.5t36.5 -126.5t102.5 -44.5t101.5 45z
M243 -86h106v-101h-106v101z" />
    <glyph glyph-name="agrave.ss01" horiz-adv-x="591" 
d="M520 488v-488h-100v84q-22 -44 -64 -67.5t-97 -23.5q-64 0 -113.5 31t-76.5 88t-27 132q0 76 27.5 134t77 90t112.5 32q55 0 97 -24t64 -68v80h100zM384.5 118q35.5 45 35.5 128t-35.5 128t-101.5 45q-65 0 -102 -46.5t-37 -128.5t36.5 -126.5t102.5 -44.5t101.5 45z
M263 552l-141 203h108l99 -203h-66z" />
    <glyph glyph-name="uni1EA3.ss01" horiz-adv-x="591" 
d="M520 488v-488h-100v84q-22 -44 -64 -67.5t-97 -23.5q-64 0 -113.5 31t-76.5 88t-27 132q0 76 27.5 134t77 90t112.5 32q55 0 97 -24t64 -68v80h100zM384.5 118q35.5 45 35.5 128t-35.5 128t-101.5 45q-65 0 -102 -46.5t-37 -128.5t36.5 -126.5t102.5 -44.5t101.5 45z
M327 552h-59v27q0 21 10 35.5t28 30.5q13 12 18.5 19t5.5 16q0 11 -10 17.5t-28 6.5q-26 0 -56 -11l-17 48q40 17 82 17q49 0 76.5 -20t27.5 -50q0 -23 -11 -37.5t-32 -30.5q-18 -14 -26.5 -24.5t-8.5 -25.5v-18z" />
    <glyph glyph-name="uni0203.ss01" horiz-adv-x="591" 
d="M520 488v-488h-100v84q-22 -44 -64 -67.5t-97 -23.5q-64 0 -113.5 31t-76.5 88t-27 132q0 76 27.5 134t77 90t112.5 32q55 0 97 -24t64 -68v80h100zM384.5 118q35.5 45 35.5 128t-35.5 128t-101.5 45q-65 0 -102 -46.5t-37 -128.5t36.5 -126.5t102.5 -44.5t101.5 45z
M400.5 700.5q46.5 -32.5 66.5 -98.5l-57 -24q-41 86 -114 86t-114 -86l-57 23q19 66 65.5 99t105.5 33q58 0 104.5 -32.5z" />
    <glyph glyph-name="amacron.ss01" horiz-adv-x="591" 
d="M520 488v-488h-100v84q-22 -44 -64 -67.5t-97 -23.5q-64 0 -113.5 31t-76.5 88t-27 132q0 76 27.5 134t77 90t112.5 32q55 0 97 -24t64 -68v80h100zM384.5 118q35.5 45 35.5 128t-35.5 128t-101.5 45q-65 0 -102 -46.5t-37 -128.5t36.5 -126.5t102.5 -44.5t101.5 45z
M144 618v70h304v-70h-304z" />
    <glyph glyph-name="aogonek.ss01" horiz-adv-x="591" 
d="M563 -172q-39 -22 -90 -22q-53 0 -86.5 30t-33.5 77q0 34 17.5 61.5t49.5 45.5v64q-22 -44 -64 -67.5t-97 -23.5q-64 0 -113.5 31t-76.5 88t-27 132t27.5 133t76.5 90.5t113 32.5q55 0 97 -24t64 -68v80h100v-488h-7q-38 0 -62.5 -20.5t-24.5 -53.5q0 -29 16.5 -44.5
t46.5 -15.5q25 0 57 16zM384.5 118q35.5 45 35.5 128t-35.5 128t-101.5 45q-65 0 -102 -46.5t-37 -128.5t36.5 -126.5t102.5 -44.5t101.5 45z" />
    <glyph glyph-name="aring.ss01" horiz-adv-x="591" 
d="M520 488v-488h-100v84q-22 -44 -64 -67.5t-97 -23.5q-64 0 -113.5 31t-76.5 88t-27 132q0 76 27.5 134t77 90t112.5 32q55 0 97 -24t64 -68v80h100zM384.5 118q35.5 45 35.5 128t-35.5 128t-101.5 45q-65 0 -102 -46.5t-37 -128.5t36.5 -126.5t102.5 -44.5t101.5 45z
M222.5 581.5q-30.5 29.5 -30.5 72.5q0 42 30.5 71.5t73.5 29.5t73.5 -29.5t30.5 -71.5q0 -43 -30.5 -72.5t-73.5 -29.5t-73.5 29.5zM329.5 619.5q13.5 14.5 13.5 34.5t-13.5 34t-33.5 14t-33.5 -14t-13.5 -34t13.5 -34.5t33.5 -14.5t33.5 14.5z" />
    <glyph glyph-name="aringacute.ss01" horiz-adv-x="591" 
d="M222 582q-30 29 -30 72t30 72.5t74 29.5q40 0 69 -26l17 68l73 53l-2 -81l-73 -56q19 -27 19 -60q0 -43 -30 -72t-73 -29q-44 0 -74 29zM262.5 688.5q-13.5 -14.5 -13.5 -34.5t13.5 -34.5t33.5 -14.5t33 14t13 35t-13 35t-33 14t-33.5 -14.5zM520 488v-488h-100v84
q-22 -44 -64 -67.5t-97 -23.5q-64 0 -113.5 31t-76.5 88t-27 132q0 76 27.5 134t77 90t112.5 32q55 0 97 -24t64 -68v80h100zM384.5 118q35.5 45 35.5 128t-35.5 128t-101.5 45q-65 0 -102 -46.5t-37 -128.5t36.5 -126.5t102.5 -44.5t101.5 45z" />
    <glyph glyph-name="atilde.ss01" horiz-adv-x="591" 
d="M520 488v-488h-100v84q-22 -44 -64 -67.5t-97 -23.5q-64 0 -113.5 31t-76.5 88t-27 132q0 76 27.5 134t77 90t112.5 32q55 0 97 -24t64 -68v80h100zM384.5 118q35.5 45 35.5 128t-35.5 128t-101.5 45q-65 0 -102 -46.5t-37 -128.5t36.5 -126.5t102.5 -44.5t101.5 45z
M157 686q26 32 69 32q20 0 37.5 -8t44.5 -24q23 -13 34.5 -18.5t22.5 -5.5q20 0 32 15t13 38h51q0 -59 -26 -91t-69 -32q-20 0 -38.5 8t-43.5 23q-19 12 -32 18t-25 6q-20 0 -32 -14.5t-13 -37.5h-51q0 59 26 91z" />
    <glyph glyph-name="I_J.loclNLD" horiz-adv-x="608" 
d="M82 0v705h103v-705h-103zM260 77l64 4q48 4 73 32.5t25 79.5v512h104v-513q0 -90 -47.5 -140t-138.5 -55l-73 -5z" />
    <glyph glyph-name="i_j.loclNLD" horiz-adv-x="484" 
d="M70 0v488h101v-488h-101zM63 706h116v-105h-116v105zM413 12q0 -95 -45.5 -141t-146.5 -52l-46 -3l-8 75l48 3q49 4 73 29t24 74v491h101v-476zM305 706h116v-105h-116v105z" />
    <glyph glyph-name="ordfeminine" unicode="&#xaa;" horiz-adv-x="333" 
d="M264.5 679.5q32.5 -30.5 32.5 -96.5v-173h-82v49q-11 -25 -34 -39.5t-52 -14.5q-44 0 -73.5 27.5t-29.5 63.5q0 46 37.5 66t131.5 20h19v15q0 26 -13 37.5t-41 11.5q-46 0 -97 -28l-20 61q25 14 58 22.5t67 8.5q64 0 96.5 -30.5zM196 481q18 17 18 47v11h-10
q-59 0 -78.5 -9t-19.5 -29q0 -16 12.5 -26.5t32.5 -10.5q27 0 45 17z" />
    <glyph glyph-name="ordmasculine" unicode="&#xba;" horiz-adv-x="351" 
d="M60.5 447.5q-40.5 42.5 -40.5 110.5q0 67 40.5 109.5t114.5 42.5t115 -42.5t41 -109.5t-41 -110t-115 -43t-114.5 42.5zM227 495.5q18 21.5 18 62.5t-18 62.5t-52 21.5t-51.5 -21.5t-17.5 -62.5t17.5 -62.5t51.5 -21.5t52 21.5z" />
    <glyph glyph-name="uni0394" unicode="&#x394;" horiz-adv-x="734" 
d="M568 340l130 -288l-348 -52l-318 15l161 417l156 273zM143 87h445l-222 500z" />
    <glyph glyph-name="Sigma" unicode="&#x3a3;" horiz-adv-x="589" 
d="M545 705v-85h-383l228 -323v-68l-228 -324h383v-85h-503v75l258 368l-258 367v75h503z" />
    <glyph glyph-name="uni03A9" unicode="&#x3a9;" horiz-adv-x="788" 
d="M719.5 356q-15.5 -46 -54 -109t-112.5 -162h173v-85h-269v82q100 155 136.5 232t36.5 134q0 85 -62.5 133t-173.5 48t-173.5 -48t-62.5 -133q0 -58 37 -135.5t136 -230.5v-82h-268v85h173q-77 106 -115 168t-53 106t-15 91q0 80 41.5 140t118.5 92t181 32
q103 0 180 -32.5t119 -92.5t42 -139q0 -48 -15.5 -94z" />
    <glyph glyph-name="uni03BC" unicode="&#x3bc;" horiz-adv-x="569" 
d="M498 488v-488h-98v79q-23 -42 -63.5 -64t-90.5 -22q-47 0 -77 17v-190h-101v668h101v-298q0 -59 24 -87t74 -28q59 0 94.5 38t35.5 101v274h101z" />
    <glyph glyph-name="pi" unicode="&#x3c0;" horiz-adv-x="590" 
d="M582 70l-7 -77l-46 3q-101 6 -147 52t-46 141v221h-131q-2 -118 -17.5 -216.5t-49.5 -193.5h-106q66 201 72 410h-99v78h546v-78h-114v-235q0 -49 24 -73.5t74 -28.5z" />
    <glyph glyph-name="zero" unicode="0" 
d="M112.5 84q-64.5 92 -64.5 268t64.5 268.5t187.5 92.5t187.5 -92t64.5 -268q0 -177 -64.5 -269t-187.5 -92t-187.5 92zM413 142q36 67 36 211q0 143 -36 209.5t-113 66.5t-113 -66.5t-36 -209.5t36 -210.5t113 -67.5t113 67z" />
    <glyph glyph-name="one" unicode="1" 
d="M380 85h155v-85h-412v85h154v497l-123 -75l-44 77l196 121h74v-620z" />
    <glyph glyph-name="two" unicode="2" 
d="M542 85v-85h-462v77l243 266q47 51 68 93t21 83q0 54 -31 82t-89 28q-99 0 -196 -77l-36 76q42 39 106 62t129 23q101 0 160 -50.5t59 -136.5q0 -61 -26.5 -116t-88.5 -123l-189 -202h332z" />
    <glyph glyph-name="three" unicode="3" 
d="M498.5 300.5q32.5 -43.5 32.5 -109.5q0 -92 -65 -145t-176 -53q-70 0 -134 22.5t-107 62.5l37 76q95 -77 201 -77q71 0 107.5 30.5t36.5 90.5q0 59 -37.5 88.5t-113.5 29.5h-87v83h71q73 0 111.5 30.5t38.5 89.5q0 53 -32 81.5t-90 28.5q-101 0 -196 -77l-36 76
q42 40 105.5 62.5t131.5 22.5q99 0 158 -49t59 -133q0 -59 -29 -104t-81 -65q62 -18 94.5 -61.5z" />
    <glyph glyph-name="four" unicode="4" 
d="M568 228v-82h-103v-146h-101v146h-317v77l334 482h84v-477h103zM148 228h216v312z" />
    <glyph glyph-name="five" unicode="5" 
d="M450 418q50 -28 77.5 -79t27.5 -117q0 -68 -30.5 -120t-87 -80.5t-131.5 -28.5q-65 0 -128.5 23t-105.5 62l36 76q95 -77 199 -77q70 0 109 37.5t39 105.5q0 65 -39 104t-104 39q-93 0 -153 -72h-66v414h432v-83h-330v-222q55 46 139 46q66 0 116 -28z" />
    <glyph glyph-name="six" unicode="6" horiz-adv-x="599" 
d="M449.5 418.5q49.5 -28.5 77 -79.5t27.5 -117t-29.5 -118.5t-82.5 -82t-119 -29.5q-131 0 -201.5 89.5t-70.5 255.5q0 118 33 202.5t96 129t150 44.5q62 0 121 -22t103 -63l-37 -76q-94 77 -184 77q-86 0 -133 -75.5t-47 -214.5v-3q22 52 71.5 81.5t111.5 29.5
q64 0 113.5 -28.5zM417 115.5q37 39.5 37 104.5t-37.5 104t-99.5 39t-102 -39.5t-40 -103.5t39.5 -104t103.5 -40q62 0 99 39.5z" />
    <glyph glyph-name="seven" unicode="7" 
d="M62 705h477v-77l-326 -628h-110l324 620h-365v85z" />
    <glyph glyph-name="eight" unicode="8" 
d="M524 298q34 -46 34 -110q0 -92 -67.5 -143.5t-190.5 -51.5t-190.5 51.5t-67.5 143.5q0 65 34.5 111t96.5 63q-53 20 -83.5 63t-30.5 100q0 87 64 137.5t177 50.5t177 -50.5t64 -137.5q0 -57 -30.5 -100.5t-82.5 -62.5q62 -18 96 -64zM194 600.5q-36 -29.5 -36 -84.5
q0 -57 36 -87t106 -30t106 30t36 87q0 55 -36 84.5t-106 29.5t-106 -29.5zM459 195q0 120 -159 120t-159 -120q0 -119 159 -119t159 119z" />
    <glyph glyph-name="nine" unicode="9" 
d="M479.5 623.5q70.5 -89.5 70.5 -255.5q0 -118 -33.5 -202.5t-96 -129t-150.5 -44.5q-62 0 -120.5 22t-102.5 63l36 76q96 -77 184 -77q86 0 133 75.5t47 214.5v2q-22 -51 -71.5 -80.5t-111.5 -29.5q-63 0 -113 28.5t-77.5 79.5t-27.5 117t30 118.5t82.5 82t119.5 29.5
q131 0 201.5 -89.5zM385.5 381.5q39.5 39.5 39.5 103.5q0 65 -39 104.5t-103 39.5q-62 0 -99.5 -39.5t-37.5 -104.5q0 -64 37.5 -103.5t99.5 -39.5q63 0 102.5 39.5z" />
    <glyph glyph-name="one.ss01" 
d="M309 705h74v-705h-104v582l-123 -75l-44 77z" />
    <glyph glyph-name="one.tosf.ss01" 
d="M309 488h74v-488h-104v365l-123 -76l-44 78z" />
    <glyph glyph-name="zero.tosf" 
d="M169.5 24q-57.5 32 -90 90t-32.5 132t32.5 132t90 90t130.5 32t130.5 -32t90 -90t32.5 -132t-32.5 -132t-90 -90t-130.5 -32t-130.5 32zM412.5 120.5q42.5 47.5 42.5 125.5t-42.5 125.5t-112.5 47.5t-112.5 -47.5t-42.5 -125.5q0 -77 43 -125t112 -48q70 0 112.5 47.5z
" />
    <glyph glyph-name="one.tosf" 
d="M380 78h155v-78h-412v78h154v297l-127 -78l-40 70l196 121h74v-410z" />
    <glyph glyph-name="two.tosf" 
d="M519 79v-79h-425v75q165 76 235 137t70 121q0 43 -28 64.5t-82 21.5q-83 0 -182 -54l-30 72q46 30 104.5 46.5t117.5 16.5q95 0 148.5 -41.5t53.5 -116.5t-63 -140.5t-199 -122.5h280z" />
    <glyph glyph-name="three.tosf" 
d="M484.5 105q32.5 -43 32.5 -103q0 -56 -29 -99t-81 -66.5t-120 -23.5q-65 0 -125 16t-105 46l30 73q51 -29 97.5 -41.5t98.5 -12.5q65 0 99.5 30t34.5 85q0 54 -38 82.5t-111 28.5h-75v79h59q70 0 109.5 31.5t39.5 87.5q0 48 -30 74.5t-86 26.5q-79 0 -178 -54l-30 72
q44 30 101.5 46.5t110.5 16.5q102 0 157 -46.5t55 -128.5q-1 -53 -30 -97t-77 -63q58 -17 90.5 -60z" />
    <glyph glyph-name="four.tosf" 
d="M553 79v-79h-93v-180h-96v180h-312v77l324 411h84v-409h93zM147 79h217v276z" />
    <glyph glyph-name="five.tosf" 
d="M444 217q48 -27 74.5 -76t26.5 -112q0 -65 -29.5 -114t-83.5 -75.5t-127 -26.5q-58 0 -116.5 16.5t-100.5 45.5l31 73q93 -54 184 -54q67 0 104.5 36.5t37.5 98.5q0 60 -37 97t-99 37q-43 0 -81.5 -18t-67.5 -54h-61v397h416v-80h-319v-211q60 47 136 47q64 0 112 -27z
" />
    <glyph glyph-name="six.tosf" 
d="M445 420q49 -27 77 -78.5t28 -120.5q0 -66 -29.5 -118t-81 -81.5t-116.5 -29.5q-127 0 -197 90t-70 255q0 117 33 201.5t95.5 129.5t148.5 45q50 0 105 -16.5t95 -45.5l-30 -73q-86 54 -166 54q-85 0 -133 -75.5t-48 -212.5v-8q23 51 71.5 81t108.5 30t109 -27z
M414.5 113.5q37.5 40.5 37.5 106.5q0 65 -37.5 105.5t-97.5 40.5t-99.5 -41t-39.5 -105q0 -65 39.5 -106t100.5 -41q59 0 96.5 40.5z" />
    <glyph glyph-name="seven.tosf" 
d="M72 488h457v-77l-317 -592h-108l317 589h-349v80z" />
    <glyph glyph-name="eight.tosf" 
d="M518 298.5q35 -45.5 35 -110.5q0 -90 -68.5 -142.5t-184.5 -52.5t-184.5 52.5t-68.5 142.5q0 65 35 110.5t97 62.5q-54 20 -84.5 63.5t-30.5 100.5q0 56 29.5 99t83 66t123.5 23q107 0 171.5 -51t64.5 -137q0 -57 -31 -101t-85 -63q63 -17 98 -62.5zM198.5 602
q-37.5 -31 -37.5 -85q0 -55 37.5 -87t101.5 -32t101.5 32t37.5 87q0 54 -37.5 85t-101.5 31t-101.5 -31zM415 104.5q41 31.5 41 89.5t-41 90t-115 32t-115 -32t-41 -90t41 -89.5t115 -31.5t115 31.5z" />
    <glyph glyph-name="nine.tosf" 
d="M474.5 410q70.5 -88 70.5 -243q0 -105 -33.5 -185.5t-96.5 -124.5t-148 -44q-49 0 -104 17t-96 46l31 72q90 -54 166 -54q83 0 131 71t49 192q-23 -51 -70.5 -80.5t-105.5 -29.5q-63 0 -112.5 28t-77 78.5t-27.5 116.5q0 65 29.5 117t81 81.5t116.5 29.5q126 0 196.5 -88
zM383 168.5q40 40.5 40 103.5t-39.5 103.5t-100.5 40.5q-59 0 -96.5 -40t-37.5 -104t37.5 -104t96.5 -40q60 0 100 40.5z" />
    <glyph glyph-name="uni2080" unicode="&#x2080;" horiz-adv-x="380" 
d="M72.5 51q-42.5 55 -42.5 161t42.5 160.5t117.5 54.5t117.5 -54.5t42.5 -160.5t-42.5 -161t-117.5 -55t-117.5 55zM244.5 99.5q17.5 35.5 17.5 112.5q0 76 -18 111.5t-54 35.5q-37 0 -54.5 -35t-17.5 -112t17.5 -112.5t54.5 -35.5t54.5 35.5z" />
    <glyph glyph-name="uni2081" unicode="&#x2081;" horiz-adv-x="380" 
d="M260 72h77v-72h-242v72h77v253l-68 -40l-36 64l127 74h65v-351z" />
    <glyph glyph-name="uni2082" unicode="&#x2082;" horiz-adv-x="380" 
d="M339 72v-72h-288v66l140 151q23 26 34.5 47t11.5 41q0 25 -16 38.5t-45 13.5q-27 0 -57.5 -11t-58.5 -31l-23 64q28 21 69 34.5t82 13.5q64 0 101 -32.5t37 -84.5q0 -36 -17 -69t-58 -74l-94 -95h182z" />
    <glyph glyph-name="uni2083" unicode="&#x2083;" horiz-adv-x="380" 
d="M316 181q20 -26 20 -65q0 -54 -40.5 -87t-111.5 -33q-42 0 -83.5 13.5t-69.5 34.5l24 64q61 -42 122 -42q75 0 75 57q0 56 -76 56h-60v69h49q75 0 75 58q0 25 -16 38t-45 13t-60 -11t-59 -31l-23 64q28 21 68.5 34.5t78.5 13.5q67 0 104.5 -32t37.5 -82q0 -34 -18 -58.5
t-49 -36.5q37 -11 57 -37z" />
    <glyph glyph-name="uni2084" unicode="&#x2084;" horiz-adv-x="380" 
d="M362 145v-67h-62v-78h-82v78h-190v63l201 282h71v-278h62zM106 145h112v158z" />
    <glyph glyph-name="uni2085" unicode="&#x2085;" horiz-adv-x="380" 
d="M309.5 236q37.5 -36 37.5 -97q0 -66 -44 -104.5t-113 -38.5q-39 0 -79.5 13t-68.5 35l24 64q58 -41 117 -41q38 0 59 17.5t21 50.5q0 31 -20.5 49t-54.5 18q-47 0 -86 -31h-47v252h271v-71h-189v-102q31 22 77 22q58 0 95.5 -36z" />
    <glyph glyph-name="uni2086" unicode="&#x2086;" horiz-adv-x="380" 
d="M312.5 234q37.5 -35 37.5 -97q0 -64 -42 -102.5t-106 -38.5q-78 0 -123 51.5t-45 155.5q0 110 50 167t131 57q34 0 70.5 -13t64.5 -35l-23 -64q-58 42 -111 42q-93 0 -97 -135q16 22 42.5 34.5t56.5 12.5q57 0 94.5 -35zM252 80.5q19 19.5 19 52.5t-19 52.5t-51 19.5
q-33 0 -53 -19.5t-20 -52.5t19.5 -52.5t52.5 -19.5t52 19.5z" />
    <glyph glyph-name="uni2087" unicode="&#x2087;" horiz-adv-x="380" 
d="M40 423h300v-70l-180 -353h-99l183 350h-204v73z" />
    <glyph glyph-name="uni2088" unicode="&#x2088;" horiz-adv-x="380" 
d="M332.5 180.5q20.5 -26.5 20.5 -64.5q0 -55 -43 -87.5t-120 -32.5t-120 32.5t-43 87.5q0 38 20.5 65t57.5 37q-32 12 -50 37t-18 58q0 52 41 83t112 31t112 -31t41 -83q0 -34 -18.5 -59.5t-50.5 -35.5q38 -11 58.5 -37.5zM136 345.5q-18 -14.5 -18 -41.5t18.5 -42
t53.5 -15q34 0 53 15t19 42t-18 41.5t-54 14.5t-54 -14.5zM271 122q0 59 -81 59t-81 -59q0 -60 81 -60t81 60z" />
    <glyph glyph-name="uni2089" unicode="&#x2089;" horiz-adv-x="380" 
d="M301 375.5q45 -51.5 45 -155.5q0 -110 -50 -167t-131 -57q-34 0 -70.5 13t-64.5 35l23 64q60 -42 111 -42q93 0 97 135q-16 -22 -42.5 -34.5t-56.5 -12.5q-57 0 -94.5 35t-37.5 97q0 64 42 102.5t106 38.5q78 0 123 -51.5zM232 237.5q20 19.5 20 52.5t-19.5 52.5
t-52.5 19.5q-32 0 -51.5 -19t-19.5 -53q0 -33 19 -52.5t51 -19.5q33 0 53 19.5z" />
    <glyph glyph-name="zero.dnom" horiz-adv-x="380" 
d="M72.5 51q-42.5 55 -42.5 161t42.5 160.5t117.5 54.5t117.5 -54.5t42.5 -160.5t-42.5 -161t-117.5 -55t-117.5 55zM244.5 99.5q17.5 35.5 17.5 112.5q0 76 -18 111.5t-54 35.5q-37 0 -54.5 -35t-17.5 -112t17.5 -112.5t54.5 -35.5t54.5 35.5z" />
    <glyph glyph-name="one.dnom" horiz-adv-x="380" 
d="M260 72h77v-72h-242v72h77v253l-68 -40l-36 64l127 74h65v-351z" />
    <glyph glyph-name="two.dnom" horiz-adv-x="380" 
d="M339 72v-72h-288v66l140 151q23 26 34.5 47t11.5 41q0 25 -16 38.5t-45 13.5q-27 0 -57.5 -11t-58.5 -31l-23 64q28 21 69 34.5t82 13.5q64 0 101 -32.5t37 -84.5q0 -36 -17 -69t-58 -74l-94 -95h182z" />
    <glyph glyph-name="three.dnom" horiz-adv-x="380" 
d="M316 181q20 -26 20 -65q0 -54 -40.5 -87t-111.5 -33q-42 0 -83.5 13.5t-69.5 34.5l24 64q61 -42 122 -42q75 0 75 57q0 56 -76 56h-60v69h49q75 0 75 58q0 25 -16 38t-45 13t-60 -11t-59 -31l-23 64q28 21 68.5 34.5t78.5 13.5q67 0 104.5 -32t37.5 -82q0 -34 -18 -58.5
t-49 -36.5q37 -11 57 -37z" />
    <glyph glyph-name="four.dnom" horiz-adv-x="380" 
d="M362 145v-67h-62v-78h-82v78h-190v63l201 282h71v-278h62zM106 145h112v158z" />
    <glyph glyph-name="five.dnom" horiz-adv-x="380" 
d="M309.5 236q37.5 -36 37.5 -97q0 -66 -44 -104.5t-113 -38.5q-39 0 -79.5 13t-68.5 35l24 64q58 -41 117 -41q38 0 59 17.5t21 50.5q0 31 -20.5 49t-54.5 18q-47 0 -86 -31h-47v252h271v-71h-189v-102q31 22 77 22q58 0 95.5 -36z" />
    <glyph glyph-name="six.dnom" horiz-adv-x="380" 
d="M312.5 234q37.5 -35 37.5 -97q0 -64 -42 -102.5t-106 -38.5q-78 0 -123 51.5t-45 155.5q0 110 50 167t131 57q34 0 70.5 -13t64.5 -35l-23 -64q-58 42 -111 42q-93 0 -97 -135q16 22 42.5 34.5t56.5 12.5q57 0 94.5 -35zM252 80.5q19 19.5 19 52.5t-19 52.5t-51 19.5
q-33 0 -53 -19.5t-20 -52.5t19.5 -52.5t52.5 -19.5t52 19.5z" />
    <glyph glyph-name="seven.dnom" horiz-adv-x="380" 
d="M40 423h300v-70l-180 -353h-99l183 350h-204v73z" />
    <glyph glyph-name="eight.dnom" horiz-adv-x="380" 
d="M332.5 180.5q20.5 -26.5 20.5 -64.5q0 -55 -43 -87.5t-120 -32.5t-120 32.5t-43 87.5q0 38 20.5 65t57.5 37q-32 12 -50 37t-18 58q0 52 41 83t112 31t112 -31t41 -83q0 -34 -18.5 -59.5t-50.5 -35.5q38 -11 58.5 -37.5zM136 345.5q-18 -14.5 -18 -41.5t18.5 -42
t53.5 -15q34 0 53 15t19 42t-18 41.5t-54 14.5t-54 -14.5zM271 122q0 59 -81 59t-81 -59q0 -60 81 -60t81 60z" />
    <glyph glyph-name="nine.dnom" horiz-adv-x="380" 
d="M301 375.5q45 -51.5 45 -155.5q0 -110 -50 -167t-131 -57q-34 0 -70.5 13t-64.5 35l23 64q60 -42 111 -42q93 0 97 135q-16 -22 -42.5 -34.5t-56.5 -12.5q-57 0 -94.5 35t-37.5 97q0 64 42 102.5t106 38.5q78 0 123 -51.5zM232 237.5q20 19.5 20 52.5t-19.5 52.5
t-52.5 19.5q-32 0 -51.5 -19t-19.5 -53q0 -33 19 -52.5t51 -19.5q33 0 53 19.5z" />
    <glyph glyph-name="zero.numr" horiz-adv-x="380" 
d="M72.5 333q-42.5 55 -42.5 161t42.5 160.5t117.5 54.5t117.5 -54.5t42.5 -160.5t-42.5 -161t-117.5 -55t-117.5 55zM244.5 381.5q17.5 35.5 17.5 112.5q0 76 -18 111.5t-54 35.5q-37 0 -54.5 -35t-17.5 -112t17.5 -112.5t54.5 -35.5t54.5 35.5z" />
    <glyph glyph-name="one.numr" horiz-adv-x="380" 
d="M260 354h77v-72h-242v72h77v253l-68 -40l-36 64l127 74h65v-351z" />
    <glyph glyph-name="two.numr" horiz-adv-x="380" 
d="M339 354v-72h-288v66l140 151q23 26 34.5 47t11.5 41q0 25 -16 38.5t-45 13.5q-27 0 -57.5 -11t-58.5 -31l-23 64q28 21 69 34.5t82 13.5q64 0 101 -32.5t37 -84.5q0 -36 -17 -69t-58 -74l-94 -95h182z" />
    <glyph glyph-name="three.numr" horiz-adv-x="380" 
d="M316 463q20 -26 20 -65q0 -54 -40.5 -87t-111.5 -33q-42 0 -83.5 13.5t-69.5 34.5l24 64q61 -42 122 -42q75 0 75 57q0 56 -76 56h-60v69h49q75 0 75 58q0 25 -16 38t-45 13t-60 -11t-59 -31l-23 64q28 21 68.5 34.5t78.5 13.5q67 0 104.5 -32t37.5 -82q0 -34 -18 -58.5
t-49 -36.5q37 -11 57 -37z" />
    <glyph glyph-name="four.numr" horiz-adv-x="380" 
d="M362 427v-67h-62v-78h-82v78h-190v63l201 282h71v-278h62zM106 427h112v158z" />
    <glyph glyph-name="five.numr" horiz-adv-x="380" 
d="M309.5 518q37.5 -36 37.5 -97q0 -66 -44 -104.5t-113 -38.5q-39 0 -79.5 13t-68.5 35l24 64q58 -41 117 -41q38 0 59 17.5t21 50.5q0 31 -20.5 49t-54.5 18q-47 0 -86 -31h-47v252h271v-71h-189v-102q31 22 77 22q58 0 95.5 -36z" />
    <glyph glyph-name="six.numr" horiz-adv-x="380" 
d="M312.5 516q37.5 -35 37.5 -97q0 -64 -42 -102.5t-106 -38.5q-78 0 -123 51.5t-45 155.5q0 110 50 167t131 57q34 0 70.5 -13t64.5 -35l-23 -64q-58 42 -111 42q-93 0 -97 -135q16 22 42.5 34.5t56.5 12.5q57 0 94.5 -35zM252 362.5q19 19.5 19 52.5t-19 52.5t-51 19.5
q-33 0 -53 -19.5t-20 -52.5t19.5 -52.5t52.5 -19.5t52 19.5z" />
    <glyph glyph-name="seven.numr" horiz-adv-x="380" 
d="M40 705h300v-70l-180 -353h-99l183 350h-204v73z" />
    <glyph glyph-name="eight.numr" horiz-adv-x="380" 
d="M332.5 462.5q20.5 -26.5 20.5 -64.5q0 -55 -43 -87.5t-120 -32.5t-120 32.5t-43 87.5q0 38 20.5 65t57.5 37q-32 12 -50 37t-18 58q0 52 41 83t112 31t112 -31t41 -83q0 -34 -18.5 -59.5t-50.5 -35.5q38 -11 58.5 -37.5zM136 627.5q-18 -14.5 -18 -41.5t18.5 -42
t53.5 -15q34 0 53 15t19 42t-18 41.5t-54 14.5t-54 -14.5zM271 404q0 59 -81 59t-81 -59q0 -60 81 -60t81 60z" />
    <glyph glyph-name="nine.numr" horiz-adv-x="380" 
d="M301 657.5q45 -51.5 45 -155.5q0 -110 -50 -167t-131 -57q-34 0 -70.5 13t-64.5 35l23 64q60 -42 111 -42q93 0 97 135q-16 -22 -42.5 -34.5t-56.5 -12.5q-57 0 -94.5 35t-37.5 97q0 64 42 102.5t106 38.5q78 0 123 -51.5zM232 519.5q20 19.5 20 52.5t-19.5 52.5
t-52.5 19.5q-32 0 -51.5 -19t-19.5 -53q0 -33 19 -52.5t51 -19.5q33 0 53 19.5z" />
    <glyph glyph-name="uni2070" unicode="&#x2070;" horiz-adv-x="380" 
d="M72.5 333q-42.5 55 -42.5 161t42.5 160.5t117.5 54.5t117.5 -54.5t42.5 -160.5t-42.5 -161t-117.5 -55t-117.5 55zM244.5 381.5q17.5 35.5 17.5 112.5q0 76 -18 111.5t-54 35.5q-37 0 -54.5 -35t-17.5 -112t17.5 -112.5t54.5 -35.5t54.5 35.5z" />
    <glyph glyph-name="uni00B9" unicode="&#xb9;" horiz-adv-x="380" 
d="M260 354h77v-72h-242v72h77v253l-68 -40l-36 64l127 74h65v-351z" />
    <glyph glyph-name="uni00B2" unicode="&#xb2;" horiz-adv-x="380" 
d="M339 354v-72h-288v66l140 151q23 26 34.5 47t11.5 41q0 25 -16 38.5t-45 13.5q-27 0 -57.5 -11t-58.5 -31l-23 64q28 21 69 34.5t82 13.5q64 0 101 -32.5t37 -84.5q0 -36 -17 -69t-58 -74l-94 -95h182z" />
    <glyph glyph-name="uni00B3" unicode="&#xb3;" horiz-adv-x="380" 
d="M316 463q20 -26 20 -65q0 -54 -40.5 -87t-111.5 -33q-42 0 -83.5 13.5t-69.5 34.5l24 64q61 -42 122 -42q75 0 75 57q0 56 -76 56h-60v69h49q75 0 75 58q0 25 -16 38t-45 13t-60 -11t-59 -31l-23 64q28 21 68.5 34.5t78.5 13.5q67 0 104.5 -32t37.5 -82q0 -34 -18 -58.5
t-49 -36.5q37 -11 57 -37z" />
    <glyph glyph-name="uni2074" unicode="&#x2074;" horiz-adv-x="380" 
d="M362 427v-67h-62v-78h-82v78h-190v63l201 282h71v-278h62zM106 427h112v158z" />
    <glyph glyph-name="uni2075" unicode="&#x2075;" horiz-adv-x="380" 
d="M309.5 518q37.5 -36 37.5 -97q0 -66 -44 -104.5t-113 -38.5q-39 0 -79.5 13t-68.5 35l24 64q58 -41 117 -41q38 0 59 17.5t21 50.5q0 31 -20.5 49t-54.5 18q-47 0 -86 -31h-47v252h271v-71h-189v-102q31 22 77 22q58 0 95.5 -36z" />
    <glyph glyph-name="uni2076" unicode="&#x2076;" horiz-adv-x="380" 
d="M312.5 516q37.5 -35 37.5 -97q0 -64 -42 -102.5t-106 -38.5q-78 0 -123 51.5t-45 155.5q0 110 50 167t131 57q34 0 70.5 -13t64.5 -35l-23 -64q-58 42 -111 42q-93 0 -97 -135q16 22 42.5 34.5t56.5 12.5q57 0 94.5 -35zM252 362.5q19 19.5 19 52.5t-19 52.5t-51 19.5
q-33 0 -53 -19.5t-20 -52.5t19.5 -52.5t52.5 -19.5t52 19.5z" />
    <glyph glyph-name="uni2077" unicode="&#x2077;" horiz-adv-x="380" 
d="M40 705h300v-70l-180 -353h-99l183 350h-204v73z" />
    <glyph glyph-name="uni2078" unicode="&#x2078;" horiz-adv-x="380" 
d="M332.5 462.5q20.5 -26.5 20.5 -64.5q0 -55 -43 -87.5t-120 -32.5t-120 32.5t-43 87.5q0 38 20.5 65t57.5 37q-32 12 -50 37t-18 58q0 52 41 83t112 31t112 -31t41 -83q0 -34 -18.5 -59.5t-50.5 -35.5q38 -11 58.5 -37.5zM136 627.5q-18 -14.5 -18 -41.5t18.5 -42
t53.5 -15q34 0 53 15t19 42t-18 41.5t-54 14.5t-54 -14.5zM271 404q0 59 -81 59t-81 -59q0 -60 81 -60t81 60z" />
    <glyph glyph-name="uni2079" unicode="&#x2079;" horiz-adv-x="380" 
d="M301 657.5q45 -51.5 45 -155.5q0 -110 -50 -167t-131 -57q-34 0 -70.5 13t-64.5 35l23 64q60 -42 111 -42q93 0 97 135q-16 -22 -42.5 -34.5t-56.5 -12.5q-57 0 -94.5 35t-37.5 97q0 64 42 102.5t106 38.5q78 0 123 -51.5zM232 519.5q20 19.5 20 52.5t-19.5 52.5
t-52.5 19.5q-32 0 -51.5 -19t-19.5 -53q0 -33 19 -52.5t51 -19.5q33 0 53 19.5z" />
    <glyph glyph-name="fraction" unicode="&#x2044;" horiz-adv-x="181" 
d="M-82 -26l-70 40l415 717l70 -40z" />
    <glyph glyph-name="onehalf" unicode="&#xbd;" horiz-adv-x="941" 
d="M260 354h77v-72h-242v72h77v253l-68 -40l-36 64l127 74h65v-351zM298 -26l-70 40l415 717l70 -40zM900 72v-72h-288v66l140 151q23 26 34.5 47t11.5 41q0 25 -16 38.5t-45 13.5q-27 0 -57.5 -11t-58.5 -31l-23 64q28 21 69 34.5t82 13.5q64 0 101 -32.5t37 -84.5
q0 -36 -17 -69t-58 -74l-94 -95h182z" />
    <glyph glyph-name="onequarter" unicode="&#xbc;" horiz-adv-x="941" 
d="M260 354h77v-72h-242v72h77v253l-68 -40l-36 64l127 74h65v-351zM298 -26l-70 40l415 717l70 -40zM923 145v-67h-62v-78h-82v78h-190v63l201 282h71v-278h62zM667 145h112v158z" />
    <glyph glyph-name="threequarters" unicode="&#xbe;" horiz-adv-x="941" 
d="M316 463q20 -26 20 -65q0 -54 -40.5 -87t-111.5 -33q-42 0 -83.5 13.5t-69.5 34.5l24 64q61 -42 122 -42q75 0 75 57q0 56 -76 56h-60v69h49q75 0 75 58q0 25 -16 38t-45 13t-60 -11t-59 -31l-23 64q28 21 68.5 34.5t78.5 13.5q67 0 104.5 -32t37.5 -82q0 -34 -18 -58.5
t-49 -36.5q37 -11 57 -37zM298 -26l-70 40l415 717l70 -40zM923 145v-67h-62v-78h-82v78h-190v63l201 282h71v-278h62zM667 145h112v158z" />
    <glyph glyph-name="asterisk" unicode="*" horiz-adv-x="451" 
d="M419 568v-74l-140 6l75 -118l-64 -37l-65 125l-65 -125l-63 37l75 118l-140 -6v74l141 -7l-75 119l63 37l65 -125l64 125l64 -38l-75 -118z" />
    <glyph glyph-name="backslash" unicode="\" horiz-adv-x="296" 
d="M236 -68l-256 799l80 25l256 -799z" />
    <glyph glyph-name="periodcentered" unicode="&#xb7;" horiz-adv-x="238" 
d="M59 326h119v-119h-119v119z" />
    <glyph glyph-name="bullet" unicode="&#x2022;" horiz-adv-x="524" 
d="M172 111.5q-42 23.5 -66.5 64t-24.5 89.5q0 46 23.5 87t65 66t92.5 25q48 0 89.5 -23.5t66.5 -64t25 -90.5q0 -48 -24.5 -88.5t-66 -64.5t-90.5 -24q-48 0 -90 23.5z" />
    <glyph glyph-name="colon" unicode=":" horiz-adv-x="238" 
d="M59 488h119v-119h-119v119zM59 119h119v-119h-119v119z" />
    <glyph glyph-name="comma" unicode="," horiz-adv-x="238" 
d="M178 119v-81q0 -47 -15.5 -85.5t-52.5 -75.5l-44 35q42 45 48 88h-55v119h119z" />
    <glyph glyph-name="ellipsis" unicode="&#x2026;" horiz-adv-x="713" 
d="M59 119h119v-119h-119v119zM297 119h119v-119h-119v119zM535 119h119v-119h-119v119z" />
    <glyph glyph-name="exclam" unicode="!" horiz-adv-x="238" 
d="M88 198l-32 507h125l-32 -507h-61zM59 119h119v-119h-119v119z" />
    <glyph glyph-name="exclamdown" unicode="&#xa1;" horiz-adv-x="238" 
d="M59 369v119h119v-119h-119zM88 290h61l32 -470h-125z" />
    <glyph glyph-name="numbersign" unicode="#" 
d="M561 467h-93l-43 -221h115v-69h-128l-35 -177h-74l35 177h-144l-35 -177h-74l35 177h-81v69h94l43 221h-116v69h130l33 169h74l-33 -169h144l33 169h74l-33 -169h79v-69zM351 246l43 221h-144l-43 -221h144z" />
    <glyph glyph-name="period" unicode="." horiz-adv-x="238" 
d="M59 119h119v-119h-119v119z" />
    <glyph glyph-name="question" unicode="?" horiz-adv-x="450" 
d="M183 227q0 59 21 100t61 90q32 40 47 67t15 61q0 39 -27 61t-75 22q-45 0 -93.5 -19.5t-94.5 -56.5l-37 76q42 39 105 62t126 23q89 0 144 -44t55 -116q0 -36 -12.5 -67t-31 -54.5t-49.5 -58.5q-43 -47 -64.5 -80t-26.5 -76l-4 -22h-59v32zM154 0v119h119v-119h-119z" />
    <glyph glyph-name="questiondown" unicode="&#xbf;" horiz-adv-x="450" 
d="M177 369v119h119v-119h-119zM76.5 -144q-56.5 43 -56.5 115q0 50 23.5 84t69.5 75q42 38 64 67.5t27 72.5l4 23h60v-33q0 -40 -11.5 -70.5t-28 -51t-43.5 -48.5q-32 -33 -47 -56t-15 -55q0 -37 27 -59.5t75 -22.5q44 0 92.5 19.5t96.5 57.5l36 -77q-43 -39 -106 -61.5
t-125 -22.5q-86 0 -142.5 43z" />
    <glyph glyph-name="quotedbl" unicode="&#x22;" horiz-adv-x="435" 
d="M82 422l-26 283h118l-25 -283h-67zM286 422l-26 283h118l-25 -283h-67z" />
    <glyph glyph-name="quotesingle" unicode="'" horiz-adv-x="231" 
d="M82 422l-26 283h118l-25 -283h-67z" />
    <glyph glyph-name="semicolon" unicode=";" horiz-adv-x="238" 
d="M59 488h119v-119h-119v119zM59 119h119v-81q0 -47 -15.5 -85.5t-52.5 -75.5l-44 35q42 45 48 88h-55v119z" />
    <glyph glyph-name="slash" unicode="/" horiz-adv-x="296" 
d="M60 -68l-80 25l256 799l80 -25z" />
    <glyph glyph-name="underscore" unicode="_" horiz-adv-x="500" 
d="M10 -63v63h480v-63h-480z" />
    <glyph glyph-name="periodcentered.loclCAT" horiz-adv-x="300" 
d="M91 309h119v-108h-119v108z" />
    <glyph glyph-name="braceleft" unicode="{" horiz-adv-x="368" 
d="M221.5 298.5q-22.5 -28.5 -53.5 -35.5q31 -7 53.5 -36t22.5 -73v-212q0 -23 10.5 -33.5t32.5 -10.5h71v-78h-104q-52 0 -80.5 29t-28.5 82v212q0 40 -15 58.5t-53 20.5l-31 3v75l31 3q38 2 53 20.5t15 58.5v212q0 53 28.5 82t80.5 29h104v-78h-71q-22 0 -32.5 -10.5
t-10.5 -33.5v-212q0 -44 -22.5 -72.5z" />
    <glyph glyph-name="braceright" unicode="}" horiz-adv-x="368" 
d="M322 300v-75l-32 -3q-38 -2 -52.5 -20t-14.5 -59v-212q0 -53 -28.5 -82t-81.5 -29h-103v78h71q43 0 43 44v212q0 44 22.5 73t53.5 36q-31 7 -53.5 35.5t-22.5 72.5v212q0 44 -43 44h-71v78h103q53 0 81.5 -29t28.5 -82v-212q0 -41 14.5 -59t52.5 -20z" />
    <glyph glyph-name="bracketleft" unicode="[" horiz-adv-x="331" 
d="M108 -180v885h213v-78h-114v-729h114v-78h-213z" />
    <glyph glyph-name="bracketright" unicode="]" horiz-adv-x="331" 
d="M223 -180h-213v78h114v729h-114v78h213v-885z" />
    <glyph glyph-name="parenleft" unicode="(" horiz-adv-x="332" 
d="M131 36.5q-29 109.5 -29 226.5t29 226t97 231l69 -28q-50 -119 -70.5 -221.5t-20.5 -207.5t20.5 -207.5t70.5 -221.5l-69 -28q-68 121 -97 230.5z" />
    <glyph glyph-name="parenright" unicode=")" horiz-adv-x="332" 
d="M35 -166q50 119 70.5 221.5t20.5 207.5t-20.5 207.5t-70.5 221.5l69 28q67 -122 96 -231t29 -226t-29 -226.5t-96 -230.5z" />
    <glyph glyph-name="emdash" unicode="&#x2014;" horiz-adv-x="1000" 
d="M0 235v63h1000v-63h-1000z" />
    <glyph glyph-name="endash" unicode="&#x2013;" horiz-adv-x="500" 
d="M0 235v63h500v-63h-500z" />
    <glyph glyph-name="figuredash" unicode="&#x2012;" 
d="M70 235v63h460v-63h-460z" />
    <glyph glyph-name="uni2015" unicode="&#x2015;" horiz-adv-x="1000" 
d="M0 235v63h1000v-63h-1000z" />
    <glyph glyph-name="hyphen" unicode="-" horiz-adv-x="429" 
d="M70 226v81h289v-81h-289z" />
    <glyph glyph-name="uni2010" unicode="&#x2010;" horiz-adv-x="429" 
d="M70 226v81h289v-81h-289z" />
    <glyph glyph-name="uni00AD" unicode="&#xad;" horiz-adv-x="429" 
d="M70 226v81h289v-81h-289z" />
    <glyph glyph-name="guillemotleft" unicode="&#xab;" horiz-adv-x="465" 
d="M159 80l-98 160v51l97 160l70 -30l-76 -156l76 -156zM352 80l-98 160v51l97 160l70 -30l-76 -156l76 -156z" />
    <glyph glyph-name="guillemotright" unicode="&#xbb;" horiz-adv-x="462" 
d="M113 80l-69 29l76 156l-76 156l70 30l97 -160v-51zM306 80l-69 29l76 156l-76 156l70 30l97 -160v-51z" />
    <glyph glyph-name="guilsinglleft" unicode="&#x2039;" horiz-adv-x="272" 
d="M159 80l-98 160v51l97 160l70 -30l-76 -156l76 -156z" />
    <glyph glyph-name="guilsinglright" unicode="&#x203a;" horiz-adv-x="269" 
d="M113 80l-69 29l76 156l-76 156l70 30l97 -160v-51z" />
    <glyph glyph-name="quotedblbase" unicode="&#x201e;" horiz-adv-x="415" 
d="M178 119v-81q0 -47 -15.5 -85.5t-52.5 -75.5l-44 35q42 45 48 88h-55v119h119zM356 119v-81q0 -47 -15.5 -85.5t-52.5 -75.5l-44 35q42 45 48 88h-55v119h119z" />
    <glyph glyph-name="quotedblleft" unicode="&#x201c;" horiz-adv-x="415" 
d="M178 589v-119h-119v81q0 46 16 84.5t53 75.5l44 -34q-42 -46 -48 -88h54zM356 589v-119h-119v81q0 46 16 84.5t53 75.5l44 -34q-42 -46 -48 -88h54z" />
    <glyph glyph-name="quotedblright" unicode="&#x201d;" horiz-adv-x="415" 
d="M178 705v-81q0 -47 -15.5 -85t-52.5 -76l-44 35q42 45 48 88h-55v119h119zM356 705v-81q0 -47 -15.5 -85t-52.5 -76l-44 35q42 45 48 88h-55v119h119z" />
    <glyph glyph-name="quoteleft" unicode="&#x2018;" horiz-adv-x="238" 
d="M178 589v-119h-119v81q0 46 16 84.5t53 75.5l44 -34q-42 -46 -48 -88h54z" />
    <glyph glyph-name="quoteright" unicode="&#x2019;" horiz-adv-x="238" 
d="M178 705v-81q0 -47 -15.5 -85t-52.5 -76l-44 35q42 45 48 88h-55v119h119z" />
    <glyph glyph-name="quotesinglbase" unicode="&#x201a;" horiz-adv-x="238" 
d="M178 119v-81q0 -47 -15.5 -85.5t-52.5 -75.5l-44 35q42 45 48 88h-55v119h119z" />
    <glyph glyph-name="uni2007" unicode="&#x2007;" 
 />
    <glyph glyph-name="uni200A" unicode="&#x200a;" horiz-adv-x="100" 
 />
    <glyph glyph-name="uni2008" unicode="&#x2008;" horiz-adv-x="238" 
 />
    <glyph glyph-name="uni00A0" unicode="&#xa0;" horiz-adv-x="264" 
 />
    <glyph glyph-name="uni2009" unicode="&#x2009;" horiz-adv-x="200" 
 />
    <glyph glyph-name="uni200B" unicode="&#x200b;" horiz-adv-x="0" 
 />
    <glyph glyph-name="uni20B5" unicode="&#x20b5;" 
d="M567 79q-33 -33 -80.5 -55.5t-95.5 -28.5v-110h-84v110q-117 17 -183.5 111t-66.5 247q0 151 66 245.5t183 111.5v110h84v-109q49 -7 96.5 -29.5t80.5 -55.5l-37 -76q-87 78 -172 78q-93 0 -145 -72t-52 -203t52 -203.5t145 -72.5q85 0 172 78z" />
    <glyph glyph-name="cent" unicode="&#xa2;" 
d="M509 55q-27 -25 -66.5 -40.5t-84.5 -20.5v-109h-85v113q-85 17 -135.5 83t-50.5 163t50.5 164t135.5 86v113h85v-108q44 -4 84.5 -20.5t66.5 -41.5l-31 -72q-66 54 -137 54q-70 0 -109.5 -46t-39.5 -128t39 -126.5t110 -44.5t137 54z" />
    <glyph glyph-name="colonmonetary" unicode="&#x20a1;" 
d="M213 556q-52 -72 -52 -203t52 -203.5t145 -72.5q85 0 172 78l37 -76q-39 -39 -98 -63t-114 -24q-37 0 -74 8l-49 -124l-67 26l49 123q-35 18 -62 47l-57 -142l-66 25l74 185q-46 87 -46 213q0 106 33 184.5t94.5 123.5t145.5 51l43 108h75l-44 -112q33 -5 73 -22l53 134
h76l-67 -170q13 -9 28 -24l-37 -76q-87 78 -172 78q-93 0 -145 -72z" />
    <glyph glyph-name="currency" unicode="&#xa4;" 
d="M491 94l53 -55l-46 -46l-53 54q-65 -50 -145 -50q-82 0 -147 51l-54 -55l-46 46l54 56q-49 66 -49 150q0 85 49 150l-54 56l47 47l53 -56q65 51 147 51q81 0 144 -49l52 55l49 -49l-53 -55q49 -65 49 -150q0 -83 -50 -151zM377 101.5q36 22.5 57 60.5t21 83
q0 46 -21.5 84t-57.5 60t-79 22q-42 0 -77.5 -22.5t-56.5 -60.5t-21 -83t21 -83t57 -60.5t79 -22.5q42 0 78 22.5z" />
    <glyph glyph-name="dollar" unicode="$" 
d="M502 61q-56 -54 -150 -66v-110h-84v108q-67 5 -125 26.5t-101 59.5l37 77q51 -42 104 -61t116 -19q74 0 114.5 30t40.5 86q0 33 -21.5 53.5t-53.5 31.5t-89 26q-75 19 -122 38t-80.5 59t-33.5 106q0 81 58.5 137.5t154.5 67.5v109h84v-109q58 -6 109.5 -28t87.5 -56
l-37 -76q-90 78 -202 78q-69 0 -110 -31.5t-41 -86.5q0 -37 23 -60.5t57 -36t93 -26.5q73 -18 118 -36t77 -56t32 -101q0 -80 -56 -134z" />
    <glyph glyph-name="dong" unicode="&#x20ab;" 
d="M580 553h-72v-553h-100v84q-21 -43 -60.5 -66.5t-89.5 -23.5q-59 0 -105 30.5t-72 88t-26 135.5t26 134.5t72 86.5t105 30q49 0 88.5 -23t60.5 -65v142h-148v66h148v86h101v-86h72v-66zM375.5 120q32.5 46 32.5 126t-32.5 126t-92.5 46q-58 0 -92 -45t-34 -125t34.5 -127
t91.5 -47q60 0 92.5 46zM74 -143v66h434v-66h-434z" />
    <glyph glyph-name="Euro" unicode="&#x20ac;" 
d="M548 155l36 -76q-38 -40 -96 -63.5t-115 -23.5q-102 0 -168.5 65.5t-86.5 185.5h-100v68h92q-1 14 -1 42t1 42h-92v68h100q20 120 86.5 185t168.5 65q60 0 115.5 -22.5t95.5 -64.5l-36 -76q-85 78 -171 78q-129 0 -157 -165h166v-68h-173q-1 -13 -1 -42t1 -42h173v-68
h-166q28 -166 157 -166q86 0 171 78z" />
    <glyph glyph-name="florin" unicode="&#x192;" 
d="M442 605.5q-24 -22.5 -34 -71.5l-9 -44h119v-66h-133l-94 -438q-18 -87 -70 -129t-126 -42h-58v81h56q40 0 64.5 22.5t34.5 71.5l92 434h-118v66h132l10 48q18 87 70 129t127 42h57v-81h-56q-40 0 -64 -22.5z" />
    <glyph glyph-name="franc" unicode="&#x20a3;" 
d="M587 495v-84h-11q-71 0 -105 -37.5t-34 -101.5v-272h-97v316h-175v-316h-98v705h423v-85h-325v-219h175v87h91v-89q19 52 54 74t86 22h16z" />
    <glyph glyph-name="uni20B2" unicode="&#x20b2;" 
d="M326 374h228v-331q-36 -19 -82 -31.5t-90 -17.5v-109h-84v110q-118 17 -184.5 111t-66.5 247q0 152 66 245.5t183 110.5v111h84v-109q48 -7 96 -29.5t81 -55.5l-36 -76q-88 78 -173 78q-92 0 -144 -71.5t-52 -203.5t51.5 -205t142.5 -73q54 0 115 23v198h-135v78z" />
    <glyph glyph-name="uni20AD" unicode="&#x20ad;" 
d="M551 319h-231l271 -319h-116l-269 315v-315h-100v319h-88v67h88v319h100v-315l269 315h116l-272 -319h232v-67z" />
    <glyph glyph-name="lira" unicode="&#x20a4;" 
d="M239 85h324v-85h-517v85h91v158h-91v68h91v84h-91v68h91v56q0 89 55.5 141.5t149.5 52.5q65 0 123.5 -22t103.5 -64l-37 -76q-44 38 -91 58t-93 20q-53 0 -81 -30t-28 -87v-49h175v-68h-175v-84h175v-68h-175v-158z" />
    <glyph glyph-name="uni20BA" unicode="&#x20ba;" 
d="M570 77q-94 -85 -246 -85q-87 0 -170 28v297l-91 -51v79l91 51v87l-91 -51v79l91 51v143h103v-86l176 98v-79l-176 -98v-87l176 98v-78l-176 -98v-287q36 -11 80 -11q106 0 196 77z" />
    <glyph glyph-name="uni20BC" unicode="&#x20bc;" 
d="M458 631q46 -66 70.5 -217.5t24.5 -413.5h-101q0 232 -12.5 364t-36.5 190t-63 72v-302h-80v301q-38 -14 -62 -73t-36 -190.5t-12 -361.5h-101q0 262 24.5 413.5t69.5 217.5t115 78v111h84v-111q70 -12 116 -78z" />
    <glyph glyph-name="uni20A6" unicode="&#x20a6;" 
d="M583 396h-90v-84h90v-68h-90v-244h-84l-214 490v-490h-88v244h-89v68h89v84h-89v68h89v241h84l214 -504v504h88v-241h90v-68z" />
    <glyph glyph-name="peseta" unicode="&#x20a7;" horiz-adv-x="1200" 
d="M1089 248.5q37 -18.5 53 -45t16 -66.5q0 -65 -53.5 -104.5t-141.5 -39.5q-108 0 -182 51l-3 -47q-25 -4 -52 -4q-95 0 -141.5 46.5t-46.5 134.5v236h-67q-17 -78 -75.5 -122.5t-146.5 -44.5h-71v-243h-101v705h172q105 0 165 -57.5t64 -159.5h60v147h101v-147h125v-77
h-125v-233q0 -107 99 -107q10 0 36 2l23 55q42 -30 82.5 -43.5t85.5 -13.5q46 1 72 18t26 47q0 19 -10.5 31.5t-35.5 22.5t-73 20q-85 19 -123 51.5t-38 88.5q0 43 24.5 77.5t68 53.5t98.5 19q47 0 94 -17t80 -46l-31 -71q-76 55 -148 55q-41 0 -65.5 -18t-24.5 -49
q0 -28 22 -42.5t86 -29.5q65 -15 102 -33.5zM348.5 362q33.5 36 33.5 112t-33 112t-104 36h-67v-296h67q70 0 103.5 36z" />
    <glyph glyph-name="uni20B1" unicode="&#x20b1;" 
d="M583 516h-78q3 -19 3 -41t-3 -43h78v-68h-97q-26 -57 -79 -89t-128 -32h-71v-243h-101v364h-89v68h89v84h-89v68h89v121h172q77 0 130 -32t78 -89h96v-68zM377.5 361.5q33.5 35.5 33.5 112.5q0 78 -33.5 113t-102.5 35h-68v-296h68q69 0 102.5 35.5z" />
    <glyph glyph-name="uni20BD" unicode="&#x20bd;" 
d="M208 299v-83h172v-69h-172v-147h-101v147h-89v69h89v83h-89v68h89v338h234q112 0 174 -54.5t62 -147.5q0 -95 -62.5 -149.5t-173.5 -54.5h-133zM207 367h115q157 0 157 127q0 67 -38 99t-114 32h-120v-258z" />
    <glyph glyph-name="uni20B9" unicode="&#x20b9;" 
d="M579 637h-147q35 -32 47 -84h100v-68h-95q-5 -74 -51.5 -122t-123.5 -61q28 -8 50 -26.5t43 -49.5l150 -226h-123l-148 226q-24 36 -49.5 50.5t-67.5 14.5h-143v84h213q136 0 149 110h-362v68h357q-23 84 -144 84h-213v68h558v-68z" />
    <glyph glyph-name="sterling" unicode="&#xa3;" 
d="M239 85h324v-85h-517v85h91v234h-91v68h91v132q0 89 55.5 141.5t149.5 52.5q65 0 123.5 -22t103.5 -64l-37 -76q-44 38 -91 58t-93 20q-53 0 -81 -30t-28 -87v-125h175v-68h-175v-234z" />
    <glyph glyph-name="uni20A9" unicode="&#x20a9;" 
d="M583 396h-81l-11 -84h92v-68h-101l-32 -244h-64l-86 500l-86 -500h-64l-32 244h-100v68h91l-11 84h-80v68h71l-32 241h82l53 -469l77 469h62l77 -469l53 469h82l-32 -241h72v-68z" />
    <glyph glyph-name="yen" unicode="&#xa5;" 
d="M610 705l-222 -315h142v-68h-179v-84h179v-68h-179v-170h-103v170h-178v68h178v84h-178v68h142l-222 315h114l196 -285l196 285h114z" />
    <glyph glyph-name="uni2219" unicode="&#x2219;" 
d="M241 326h119v-119h-119v119z" />
    <glyph glyph-name="uni2215" unicode="&#x2215;" 
d="M212 -68l-80 25l256 799l80 -25z" />
    <glyph glyph-name="plus" unicode="+" 
d="M544 322v-74h-207v-207h-74v207h-207v74h207v207h74v-207h207z" />
    <glyph glyph-name="minus" unicode="&#x2212;" 
d="M544 322v-74h-488v74h488z" />
    <glyph glyph-name="multiply" unicode="&#xd7;" 
d="M534 467l-182 -182l182 -182l-52 -52l-182 182l-182 -182l-52 52l182 182l-182 182l52 52l182 -182l182 182z" />
    <glyph glyph-name="divide" unicode="&#xf7;" 
d="M244 430v102h100v-102h-100zM544 322v-74h-488v74h488zM244 36v102h100v-102h-100z" />
    <glyph glyph-name="equal" unicode="=" 
d="M544 422v-74h-488v74h488zM544 222v-74h-488v74h488z" />
    <glyph glyph-name="notequal" unicode="&#x2260;" 
d="M544 348h-184l-53 -126h237v-74h-267l-56 -134l-68 29l44 105h-141v74h171l53 126h-224v74h254l56 134l68 -29l-44 -105h154v-74z" />
    <glyph glyph-name="greater" unicode="&#x3e;" 
d="M56 538l488 -214v-78l-488 -214v81l396 172l-396 172v81z" />
    <glyph glyph-name="less" unicode="&#x3c;" 
d="M544 538v-81l-396 -172l396 -172v-81l-488 214v78z" />
    <glyph glyph-name="greaterequal" unicode="&#x2265;" 
d="M56 538l488 -170v-78l-488 -170v79l383 130l-383 130v79zM56 0v74h488v-74h-488z" />
    <glyph glyph-name="lessequal" unicode="&#x2264;" 
d="M544 538v-79l-383 -130l383 -130v-79l-488 170v78zM56 0v74h488v-74h-488z" />
    <glyph glyph-name="plusminus" unicode="&#xb1;" 
d="M337 366h207v-74h-207v-163h-74v163h-207v74h207v163h74v-163zM56 0v74h488v-74h-488z" />
    </font>
</defs>
</svg>
